Чужая кровь / Strange Blood (Чад Майкл Уорд / Chad Michael Ward) [2015, США, научная фантастика, драма, ужасы, HDRip] DVO (2D) + Original Eng

 
Автор Сообщение

TorrentFilm ®

Пол:

Стаж: 2 года

Сообщений: 7741



Награды: Нет

Торрент-статистика

Создавать темы 08-Июн-2015 00:04

[Цитировать]

Чужая кровь / Strange Blood
Страна: США
Жанр: научная фантастика, драма, ужасы
Год выпуска: 2015
Продолжительность: 01:23:47
Перевод: Любительский (двухголосый закадровый) 2D
Cубтитры: нет
Оригинальная аудиодорожка: английский
Режиссер: Чад Майкл Уорд / Chad Michael Wоrd
В ролях: Роберт Бреттенаух, Александра Бард, Джеймс Лим, Скотт Хэрдерс, Мишель Габриэлла Ламарр
Описание: Опальный учёный проводит эксперименты по созданию вакцины от всех болезней. Но то, что порождает его эксперимент, изменит человечество навсегда...
Доп. информация:
Перевод: Antonio
Сэмпл: http://multi-up.com/1051557
Качество видео: HDRip
Формат видео: AVI
Видео: DivX 5 720x400 23.98fps 1755Kbps
Аудио 1: Dolby AC3 48000Hz stereo 192Kbps [русский]
Аудио 2: Dolby AC3 48000Hz 6 Audio Channel 384Kbps [английский]

MediaInfo

General
Complete name : D:\TORRENTS\Чужая кровь.avi
Format : AVI
Format/Info : Audio Video Interleave
File size : 1.37 GiB
Duration : 1h 23mn
Overall bit rate : 2 346 Kbps
Writing application : VirtualDubMod 1.5.10.2 (build 2540/release)
Writing library : VirtualDubMod build 2540/release
Video
ID : 0
Format : MPEG-4 Visual
Format profile : Advanced Simple@L5
Format settings, BVOP : 2
Format settings, QPel : No
Format settings, GMC : No warppoints
Format settings, Matrix : Default (H.263)
Codec ID : DX50
Codec ID/Hint : DivX 5
Duration : 1h 23mn
Bit rate : 1 755 Kbps
Width : 720 pixels
Height : 400 pixels
Display aspect ratio : 16:9
Frame rate : 23.976 fps
Color space : YUV
Chroma subsampling : 4:2:0
Bit depth : 8 bits
Scan type : Progressive
Compression mode : Lossy
Bits/(Pixel*Frame) : 0.254
Stream size : 1.03 GiB (75%)
Writing library : XviD 66
Audio #1
ID : 1
Format : AC-3
Format/Info : Audio Coding 3
Mode extension : CM (complete main)
Format settings, Endianness : Big
Codec ID : 2000
Duration : 1h 23mn
Bit rate mode : Constant
Bit rate : 192 Kbps
Channel(s) : 2 channels
Channel positions : Front: L R
Sampling rate : 48.0 KHz
Compression mode : Lossy
Stream size : 115 MiB (8%)
Alignment : Split accross interleaves
Interleave, duration : 42 ms (1.00 video frame)
Interleave, preload duration : 500 ms
Audio #2
ID : 2
Format : AC-3
Format/Info : Audio Coding 3
Mode extension : CM (complete main)
Format settings, Endianness : Big
Codec ID : 2000
Duration : 1h 23mn
Bit rate mode : Constant
Bit rate : 384 Kbps
Channel(s) : 6 channels
Channel positions : Front: L C R, Side: L R, LFE
Sampling rate : 48.0 KHz
Compression mode : Lossy
Stream size : 230 MiB (16%)
Alignment : Split accross interleaves
Interleave, duration : 42 ms (1.00 video frame)
Interleave, preload duration : 500 ms

Скриншот c названием фильма

Скриншоты

[Профиль] [ЛС]
Показать сообщения:    

Текущее время: Сегодня 11:54

Часовой пояс: GMT



Вы не можете начинать темы
Вы не можете отвечать на сообщения
Вы не можете редактировать свои сообщения
Вы не можете удалять свои сообщения
Вы не можете голосовать в опросах
Вы не можете прикреплять файлы к сообщениям
Вы не можете скачивать файлы