Чужая кровь / Strange Blood (2015) WEB-DL 720p | L2

 
Автор Сообщение

достали все ®

Пол:

Стаж: 1 год 8 месяцев

Сообщений: 6629



Награды: 12 (Подробнее)

Top Releaser 2 (Количество: 1) Mega Seeder 4 (Количество: 1) Mega Releaser 2 (Количество: 1)
Торрент-статистика

Создавать темы 01-Июн-2015 22:07

[Цитировать]

Информация о фильме
Название: Чужая кровь
Оригинальное название: Strange Blood
Год выхода: 2015
Жанр: фантастика, драма, ужасы
Режиссер: Чад Майкл Уорд
В ролях: Роберт Бреттенаух, Александра Бард, Джеймс Лим, Скотт Хэрдерс, Мишель Габриэлла Ламарр
О фильме: Ученый проводит эксперименты по поиску лекарства, ставшего бы панацей от всех болезней, в т.ч. и от рака, но то, что порождает его эксперимент изменит род людской навсегда...

Выпущено: США
Продолжительность: 01:23:47
Озвучивание: Любительское (двухголосое) [den904 и DedSno], перевод [Antonio]

Файл
Формат: MKV
Качество: WEB-DL 720p
Видео: 3607 kb/s, 1280x718
Аудио: Russian: AC3, 192 kb/s, (2 ch) / English: AC3, 384 kb/s, (6 ch)
Субтитры: English

MI

Format : Matroska
Format version : Version 4 / Version 2
File size : 2.50 GiB
Duration : 1h 23mn
Overall bit rate : 4 268 Kbps
Encoded date : UTC 2015-06-01 20:41:49
Writing application : mkvmerge v6.1.0 ('Old Devil') built on Mar 4 2013 09:10:42
Writing library : libebml v1.3.0 + libmatroska v1.4.0
Video
ID : 1
Format : AVC
Format/Info : Advanced Video Codec
Format profile : High@L3.1
Format settings, CABAC : No
Format settings, ReFrames : 2 frames
Codec ID : V_MPEG4/ISO/AVC
Duration : 1h 23mn
Bit rate : 3 607 Kbps
Width : 1 280 pixels
Height : 718 pixels
Display aspect ratio : 16:9
Frame rate : 23.976 fps
Color space : YUV
Chroma subsampling : 4:2:0
Bit depth : 8 bits
Scan type : Progressive
Bits/(Pixel*Frame) : 0.164
Stream size : 2.11 GiB (85%)
Language : English
Default : Yes
Forced : No
Color primaries : BT.709-5, BT.1361, IEC 61966-2-4, SMPTE RP177
Transfer characteristics : BT.709-5, BT.1361
Matrix coefficients : BT.709-5, BT.1361, IEC 61966-2-4 709, SMPTE RP177
Audio #1
ID : 2
Format : AC-3
Format/Info : Audio Coding 3
Mode extension : CM (complete main)
Format settings, Endianness : Big
Codec ID : A_AC3
Duration : 1h 23mn
Bit rate mode : Constant
Bit rate : 192 Kbps
Channel(s) : 2 channels
Channel positions : Front: L R
Sampling rate : 48.0 KHz
Bit depth : 16 bits
Compression mode : Lossy
Stream size : 115 MiB (4%)
Language : Russian
Default : Yes
Forced : No
Audio #2
ID : 3
Format : AC-3
Format/Info : Audio Coding 3
Mode extension : CM (complete main)
Format settings, Endianness : Big
Codec ID : A_AC3
Duration : 1h 23mn
Bit rate mode : Constant
Bit rate : 384 Kbps
Channel(s) : 6 channels
Channel positions : Front: L C R, Side: L R, LFE
Sampling rate : 48.0 KHz
Bit depth : 16 bits
Compression mode : Lossy
Stream size : 230 MiB (9%)
Language : English
Default : No
Forced : No
Text
ID : 4
Format : UTF-8
Codec ID : S_TEXT/UTF8
Codec ID/Info : UTF-8 Plain Text
Language : English
Default : No
Forced : No
Menu
00:00:00.000 : en:Interrogation
00:03:49.000 : en:“A cure for everythingâ€
00:10:06.000 : en:Defense Mechanism
00:15:27.000 : en:Feeling Effects
00:24:24.000 : en:What's Inside?
00:30:59.000 : en:“Out of the ordinaryâ€
00:40:19.000 : en:“Come back later...â€
00:48:44.000 : en:Inappropriate
00:56:19.000 : en:A New Look
01:02:39.000 : en:“I understand everything...â€
01:11:41.000 : en:Too High a Risk
01:19:30.000 : en:Henry's Blood

Скриншоты


[Профиль] [ЛС]
Показать сообщения:    

Текущее время: Сегодня 14:03

Часовой пояс: GMT



Вы не можете начинать темы
Вы не можете отвечать на сообщения
Вы не можете редактировать свои сообщения
Вы не можете удалять свои сообщения
Вы не можете голосовать в опросах
Вы не можете прикреплять файлы к сообщениям
Вы не можете скачивать файлы