Чужая дочь / Audrey Rose (1977) BDRip 1080p | P

 
Автор Сообщение

sergej644 ®

Пол:

Стаж: 4 года 11 месяцев

Сообщений: 6035

Откуда: Soviet Union



Награды: Нет

Торрент-статистика

Создавать темы 26-Фев-2015 20:30

[Цитировать]

Год выпуска: 1977
Страна: США
Жанр: ужасы, фэнтези, триллер, драма
Продолжительность: 01:53:22
Перевод: профессиональный многоголосый
Субтитры: английские (для слабослышащих)
Режиссёр: Роберт Уайз
В ролях: Марша Мейсон, Энтони Хопкинс, Джон Бек, Сьюзэн Свифт, Норман Ллойд, Джон Хиллерман, Роберт Уолден, Филип Стерлинг, Айви Джонс, Стивен Перлман, Мэри Джексон, Ричард Лоусон, Тони Бранд, Элизабет Фарли, Рут Мэннинг, Стэнли Брок, Дэвид Уилсон, Дэвид Фреско, Пэт Корли, Юнис Кристофер, Карен Андерс, Фред Д. Скотт
Описание: Всё о чём мечтают Билл и Дженет Темплтон, это спокойная, неторопливая жизнь со своей 11-летней дочерью Иви. Но их мечты однажды превращаются в прах: у Иви появляются видения о жутких событиях, которые с ней никогда не происходили, а их самих начинает маниакально преследовать странный незнакомец, пытающийся убедить их в том, что Иви не их дочь. И когда бывшая счастливая пара думает, что ничего хуже этого произойти не может, они сталкиваются с ужасом, который не увидишь даже в самых страшных снах, — с силой из загробного мира, пытающейся уничтожить самое ценное, что есть в их жизни — их дочь...

Качество: BDRip 1080p
Формат: MKV
Видео кодек: H.264
Видео: 17.6 Mбит/с, 1920x1040, 23.976 кадра/с, 0.367 bpp
Аудио 1: русский, AC3, 384 kbps, 2 ch, 48 kHz [профессиональный многоголосый, НТВ+]
Аудио 2: английский, DTS, 1509 kbps, 2 ch, 48 kHz [оригинал]
Имеются неименованные главы/чаптеры.

MediaInfo

Общее
Уникальный идентификатор : 219342095556066375373621962506577017754 (0xA503C040DADBB6BBA905BDBBDF367B9A)
Полное имя : D:VideoChugaja doch.1977.BDRip.1080p.mkv
Формат : Matroska
Версия формата : Version 4 / Version 2
Размер файла : 15,7 Гбайт
Продолжительность : 1 ч. 53 м.
Общий поток : 19,9 Мбит/сек
Дата кодирования : UTC 2015-02-15 03:51:58
Программа кодирования : mkvmerge v7.6.0 ('Garden of Dreams') 64bit built on Feb 8 2015 13:04:34
Библиотека кодирования : libebml v1.3.1 + libmatroska v1.4.2
_STATISTICS_WRITING_APP : mkvmerge v7.6.0 ('Garden of Dreams') 64bit built on Feb 8 2015 13:04:34
_STATISTICS_WRITING_DATE_UTC : 2015-02-15 03:51:58
_STATISTICS_TAGS : BPS DURATION NUMBER_OF_FRAMES NUMBER_OF_BYTES
DURATION : 01:53:22.848000000
NUMBER_OF_FRAMES : 637767
NUMBER_OF_BYTES : 1283187268
Видео
Идентификатор : 1
Формат : AVC
Формат/Информация : Advanced Video Codec
Профиль формата : High@L4.1
Параметр CABAC формата : Да
Параметр ReFrames формата : 4 кадра
Идентификатор кодека : V_MPEG4/ISO/AVC
Продолжительность : 1 ч. 53 м.
Битрейт : 17,6 Мбит/сек
Ширина : 1920 пикселей
Высота : 1040 пикселей
Соотношение сторон : 1,85:1
Режим частоты кадров : Постоянный
Частота кадров : 23,976 кадра/сек
Цветовое пространство : YUV
Субдискретизация насыщенности : 4:2:0
Битовая глубина : 8 бит
Тип развёртки : Прогрессивная
Бит/(Пиксели*Кадры) : 0.367
Размер потока : 13,9 Гбайт (88%)
Библиотека кодирования : x264 core 142 r2431 ac76440
Настройки программы : cabac=1 / ref=4 / deblock=1:-1:-1 / analyse=0x3:0x113 / me=umh / subme=10 / psy=1 / psy_rd=1.00:0.15 / mixed_ref=1 / me_range=32 / chroma_me=1 / trellis=2 / 8x8dct=1 / cqm=0 / deadzone=21,11 / fast_pskip=1 / chroma_qp_offset=-3 / threads=6 / lookahead_threads=1 / sliced_threads=0 / nr=0 / decimate=1 / interlaced=0 / bluray_compat=0 / constrained_intra=0 / bframes=8 / b_pyramid=2 / b_adapt=2 / b_bias=0 / direct=3 / weightb=1 / open_gop=0 / weightp=2 / keyint=230 / keyint_min=23 / scenecut=40 / intra_refresh=0 / rc_lookahead=40 / rc=crf / mbtree=0 / crf=20.0 / qcomp=0.60 / qpmin=0 / qpmax=69 / qpstep=4 / vbv_maxrate=40000 / vbv_bufsize=50000 / crf_max=0.0 / nal_hrd=none / filler=0 / ip_ratio=1.40 / pb_ratio=1.30 / aq=1:1.00
Язык : English
Default : Да
Forced : Нет
DURATION : 01:53:21.420000000
NUMBER_OF_FRAMES : 163071
NUMBER_OF_BYTES : 15277915138
_STATISTICS_WRITING_APP : mkvmerge v7.6.0 ('Garden of Dreams') 64bit built on Feb 8 2015 13:04:34
_STATISTICS_WRITING_DATE_UTC : 2015-02-15 03:51:58
_STATISTICS_TAGS : BPS DURATION NUMBER_OF_FRAMES NUMBER_OF_BYTES
Аудио #1
Идентификатор : 2
Формат : AC-3
Формат/Информация : Audio Coding 3
Расширение режима : CM (complete main)
Параметр Endianness формата : Big
Идентификатор кодека : A_AC3
Продолжительность : 1 ч. 53 м.
Вид битрейта : Постоянный
Битрейт : 384 Кбит/сек
Каналы : 2 канала
Расположение каналов : Front: L R
Частота : 48,0 КГц
Битовая глубина : 16 бит
Метод сжатия : С потерями
Размер потока : 311 Мбайт (2%)
Заголовок : MVO
Язык : Russian
Default : Да
Forced : Нет
Аудио #2
Идентификатор : 3
Формат : DTS
Формат/Информация : Digital Theater Systems
Режим : 16
Параметр Endianness формата : Big
Идентификатор кодека : A_DTS
Продолжительность : 1 ч. 53 м.
Вид битрейта : Постоянный
Битрейт : 1509 Кбит/сек
Каналы : 2 канала
Расположение каналов : Front: L R
Частота : 48,0 КГц
Битовая глубина : 24 бит
Метод сжатия : С потерями
Размер потока : 1,20 Гбайт (8%)
Заголовок : Original
Язык : English
Default : Нет
Forced : Нет
Текст
Идентификатор : 4
Формат : UTF-8
Идентификатор кодека : S_TEXT/UTF8
Идентификатор кодека/Информация : UTF-8 Plain Text
Заголовок : английский (для слабослышащих)
Язык : English
Default : Нет
Forced : Нет
Меню
00:00:00.000 : :Chapter 01
00:10:56.154 : :Chapter 02
00:20:15.462 : :Chapter 03
00:31:11.160 : :Chapter 04
00:43:00.702 : :Chapter 05
00:49:52.322 : :Chapter 06
01:00:23.577 : :Chapter 07
01:12:42.523 : :Chapter 08
01:21:06.861 : :Chapter 09
01:31:16.594 : :Chapter 10
01:40:16.175 : :Chapter 11
01:51:53.081 : :Chapter 12
01:53:21.377 : :Chapter 13

Скриншоты


[Профиль] [ЛС]
Показать сообщения:    

Текущее время: Сегодня 02:44

Часовой пояс: GMT



Вы не можете начинать темы
Вы не можете отвечать на сообщения
Вы не можете редактировать свои сообщения
Вы не можете удалять свои сообщения
Вы не можете голосовать в опросах
Вы не можете прикреплять файлы к сообщениям
Вы не можете скачивать файлы