Чужаки / Outlanders (Доминик Лииз / Dominic Lees) [2007, Великобритания, Триллер, драма, криминал, DVDRip] MVO

 
Автор Сообщение

painkiller ®

Стаж: 2 года 3 месяца

Сообщений: 582



Награды: Нет

Торрент-статистика

Создавать темы 17-Авг-2014 01:02

[Цитировать]

Чужаки / Outlanders«Sometimes Right and Wrong isn't Black and White»- Страна: Великобритания
Жанр: Триллер, драма, криминал
Год выпуска: 2007
Продолжительность: 01:38:36-Перевод: Профессиональный (многоголосый закадровый)
Cубтитры: нет-Режиссер: Доминик Лииз / Dominic Lees-В ролях: Якуб Толак, Пжемыслав Садовски, Алексис Рабен, Шон Дингуолл, Джо Такер, Олегар Федоро, Дэймон Янгер, Майкл Клесич, Шабан Арифи, Джерго Данка-Описание: Польский футболист Адам, получив серьёзную травму, заканчивает свою спортивную карьеру и уезжает в Лондон. Этот город как магнит тянет его к себе. Тем более, в Лондоне уже много лет живет старший брат Адама — Ян. Ян связан с криминалом: он занимается «поставками» дешёвой рабочей силы из стран Восточной Европы. Нелегалов доставляют на английских судах, они живут в Лондоне в нечеловеческих условиях. Адам видит изнанку лондонского благополучия — мир лёгкой наживы, бесправия и отчаяния. Он понимает, что его родной брат негодяй и убийца...-Sample | IMDB | КиноПоиск-Тип релиза: DVDRip
Формат видео: AVI-Видео: 576x320 (1.80:1), 25 fps, XviD build 50, 919 kbps avg, 0.20 bit/pixel
Аудио: 48 kHz, MPEG Layer 3, 2 ch, 128.00 kbps avg [Russian_MVO]--

MediaInfo

General
Complete name : D:\Мои релизы\Outlanders (2007)_[745]_RG_All_Films.avi
Format : AVI
Format/Info : Audio Video Interleave
File size : 746 MiB
Duration : 1h 38mn
Overall bit rate : 1 058 Kbps
Writing application : VirtualDubMod 1.5.10.3 | www.virtualdub-fr.org || (build 2550/release)
Writing library : VirtualDubMod build 2550/release
Video
ID : 0
Format : MPEG-4 Visual
Format profile : Advanced Simple@L5
Format settings, BVOP : Yes
Format settings, QPel : No
Format settings, GMC : No warppoints
Format settings, Matrix : Custom
Codec ID : XVID
Codec ID/Hint : XviD
Duration : 1h 38mn
Bit rate : 920 Kbps
Width : 576 pixels
Height : 320 pixels
Display aspect ratio : 16:9
Frame rate : 25.000 fps
Color space : YUV
Chroma subsampling : 4:2:0
Bit depth : 8 bits
Scan type : Progressive
Compression mode : Lossy
Bits/(Pixel*Frame) : 0.200
Stream size : 649 MiB (87%)
Writing library : XviD 1.2.1 (UTC 2008-12-04)
Audio
ID : 1
Format : MPEG Audio
Format version : Version 1
Format profile : Layer 3
Codec ID : 55
Codec ID/Hint : MP3
Duration : 1h 38mn
Bit rate mode : Constant
Bit rate : 128 Kbps
Channel(s) : 2 channels
Sampling rate : 48.0 KHz
Compression mode : Lossy
Stream size : 90.3 MiB (12%)
Alignment : Aligned on interleaves
Interleave, duration : 40 ms (1.00 video frame)
Interleave, preload duration : 504 ms
Writing library : LAME3.98r
Encoding settings : -m s -V 4 -q 2 -lowpass 17 -b 128

Скриншоты

[Профиль] [ЛС]

Создавать темы 06-Авг-2015 23:09 (спустя 11 месяцев 20 дней)

Топик был перенесен из форума Фильмы до 2014 года в форум Фильмы до 2012 года
sergej644
 
Показать сообщения:    

Текущее время: Сегодня 22:42

Часовой пояс: GMT



Вы не можете начинать темы
Вы не можете отвечать на сообщения
Вы не можете редактировать свои сообщения
Вы не можете удалять свои сообщения
Вы не можете голосовать в опросах
Вы не можете прикреплять файлы к сообщениям
Вы не можете скачивать файлы