Чужаки / Outlanders (Доминик Лииз / Dominic Lees) [2007, Великобритания, Триллер, драма, криминал, DVDRip] MVO

 
Автор Сообщение

reversefile ®

Пол:

Стаж: 4 года 5 месяцев

Сообщений: 842

Откуда: ReverseFile.org



Награды: Нет

Торрент-статистика

Создавать темы 11-Авг-2014 10:42

[Цитировать]

Чужаки / Outlanders«Sometimes Right and Wrong isn't Black and White»- Страна: Великобритания
Жанр: Триллер, драма, криминал
Год выпуска: 2007
Продолжительность: 01:38:36-Перевод: Профессиональный (многоголосый закадровый)
Cубтитры: нет-Режиссер: Доминик Лииз / Dominic Lees-В ролях: Якуб Толак, Пжемыслав Садовски, Алексис Рабен, Шон Дингуолл, Джо Такер, Олегар Федоро, Дэймон Янгер, Майкл Клесич, Шабан Арифи, Джерго Данка-Описание: Польский футболист Адам, получив серьёзную травму, заканчивает свою спортивную карьеру и уезжает в Лондон. Этот город как магнит тянет его к себе. Тем более, в Лондоне уже много лет живет старший брат Адама — Ян. Ян связан с криминалом: он занимается «поставками» дешёвой рабочей силы из стран Восточной Европы. Нелегалов доставляют на английских судах, они живут в Лондоне в нечеловеческих условиях. Адам видит изнанку лондонского благополучия — мир лёгкой наживы, бесправия и отчаяния. Он понимает, что его родной брат негодяй и убийца...-Sample | IMDB | КиноПоиск-Тип релиза: DVDRip
Формат видео: AVI-Видео: 704x400 (1.76:1), 25 fps, XviD build 50, 1922 kbps avg, 0.27 bit/pixel
Аудио: 48 kHz, AC3 Dolby Digital, 2/0 (L,R) ch, 192.00 kbps avg [Russian_MVO]-
-

MediaInfo

General
Complete name : D:\Мои релизы\Outlanders (2007)_RG_All_Films.avi
Format : AVI
Format/Info : Audio Video Interleave
File size : 1.46 GiB
Duration : 1h 38mn
Overall bit rate : 2 125 Kbps
Writing application : VirtualDubMod 1.5.10.3 | www.virtualdub-fr.org || (build 2550/release)
Writing library : VirtualDubMod build 2550/release
Video
ID : 0
Format : MPEG-4 Visual
Format profile : Advanced Simple@L5
Format settings, BVOP : Yes
Format settings, QPel : No
Format settings, GMC : No warppoints
Format settings, Matrix : Custom
Codec ID : XVID
Codec ID/Hint : XviD
Duration : 1h 38mn
Bit rate : 1 923 Kbps
Width : 704 pixels
Height : 400 pixels
Display aspect ratio : 16:9
Frame rate : 25.000 fps
Color space : YUV
Chroma subsampling : 4:2:0
Bit depth : 8 bits
Scan type : Progressive
Compression mode : Lossy
Bits/(Pixel*Frame) : 0.273
Stream size : 1.32 GiB (91%)
Writing library : XviD 1.2.1 (UTC 2008-12-04)
Audio
ID : 1
Format : AC-3
Format/Info : Audio Coding 3
Mode extension : CM (complete main)
Codec ID : 2000
Duration : 1h 38mn
Bit rate mode : Constant
Bit rate : 192 Kbps
Channel(s) : 2 channels
Channel positions : Front: L R
Sampling rate : 48.0 KHz
Bit depth : 16 bits
Compression mode : Lossy
Stream size : 135 MiB (9%)
Alignment : Split accross interleaves
Interleave, duration : 40 ms (1.00 video frame)
Interleave, preload duration : 500 ms

Скриншоты

[Профиль] [ЛС]

Создавать темы 06-Авг-2015 23:20 (спустя 11 месяцев 26 дней)

Топик был перенесен из форума Фильмы до 2014 года в форум Фильмы до 2012 года
sergej644
 
Показать сообщения:    

Текущее время: Сегодня 09:54

Часовой пояс: GMT



Вы не можете начинать темы
Вы не можете отвечать на сообщения
Вы не можете редактировать свои сообщения
Вы не можете удалять свои сообщения
Вы не можете голосовать в опросах
Вы не можете прикреплять файлы к сообщениям
Вы не можете скачивать файлы