Чудо-Женщина / Wonder Woman (2017) WEBRip 1080p | Трейлер

 
Автор Сообщение

ODESSA ®

Пол:

Стаж: 1 год 7 месяцев

Сообщений: 421

Откуда: ODESSA



Награды: Нет

Торрент-статистика

Создавать темы 26-Июл-2016 10:29

[Цитировать]

Год выпуска: 2017
Производство: США / Warner Bros. Pictures, DC Entertainment, Atlas Entertainment, Dune Entertainment
Жанр: Фантастика, фэнтези, боевик, приключения
Перевод: Дублированный
Режиссер: Пэтти Дженкинс
Продюсеры: Чарльз Ровен, Дебора Снайдер, Зак Снайдер
Актеры: Галь Гадот, Крис Пайн, Робин Райт, Конни Нильсен, Дэвид Тьюлис, Елена Анайя, Люси Дэвис, Дэнни Хьюстон, Юэн Бремнер, Саманта Джо
Описание фильма:
Перед тем как стать Чудо-Женщиной, она была Дианой — принцессой амазонок, обученной быть непобедимой воительницей. И когда на берегах огражденного ото внешнего мира райского острова, который служил ей родиной, терпит крушение американский пилот и рассказывает о серьезном конфликте, бушующем во внешнем мире, Диана покидает свой дом, чтобы справиться с этой угрозой. И там, сражаясь бок о бок с человеком в войне за мир, Диана обнаружит всю полноту своей власти… и свое истинное предназначение.-Дата мировой премьеры: 1 июня 2017
Дата российской премьеры: 1 июня 2017, «Каро-Премьер» 3D
-Продолжительность: 00:02:45
Качество видео: WEBRip
Видеокодек: MPEG-4 AVC/H.264
Битрейт видео: ~18,0 Мбит/сек
Размер кадра: 1920x1080
Аудиокодек: AC3 5.1
Битрейт аудио: 448 Кбит/сек

MediaInfo:

Общее
Уникальный идентификатор : 30553871378396010271496413800756749209 (0x16FC762A2318082423C7ED9F00D12399)
Полное имя : F:ВидеоWonder Woman (2017) WEBRip [1080p] Trailer.mkv
Формат : Matroska
Версия формата : Version 4 / Version 2
Размер файла : 356 Мбайт
Продолжительность : 2 м. 45 с.
Общий поток : 18,0 Мбит/сек
Программа кодирования : Lavf55.37.101
Библиотека кодирования : Lavf55.37.101 / Lavf55.37.101
Видео
Идентификатор : 1
Формат : AVC
Формат/Информация : Advanced Video Codec
Профиль формата : Baseline@L4.1
Параметр CABAC формата : Нет
Параметр ReFrames формата : 1 кадр
Идентификатор кодека : V_MPEG4/ISO/AVC
Продолжительность : 2 м. 45 с.
Битрейт : 18,0 Мбит/сек
Ширина : 1920 пикселей
Высота : 1080 пикселей
Соотношение сторон : 16:9
Режим частоты кадров : Постоянный
Частота кадров : 25,000 кадров/сек
Цветовое пространство : YUV
Субдискретизация насыщенности : 4:2:0
Битовая глубина : 8 бит
Тип развёртки : Прогрессивная
Бит/(Пиксели*Кадры) : 0.347
Размер потока : 340 Мбайт (96%)
Библиотека кодирования : x264 core 119
Настройки программы : cabac=0 / ref=1 / deblock=0:0:0 / analyse=0:0 / me=dia / subme=0 / psy=1 / psy_rd=1.00:0.00 / mixed_ref=0 / me_range=16 / chroma_me=1 / trellis=0 / 8x8dct=0 / cqm=0 / deadzone=21,11 / fast_pskip=1 / chroma_qp_offset=0 / threads=4 / sliced_threads=0 / nr=0 / decimate=1 / interlaced=0 / bluray_compat=0 / constrained_intra=0 / bframes=0 / weightp=0 / keyint=250 / keyint_min=25 / scenecut=0 / intra_refresh=0 / rc=abr / mbtree=0 / bitrate=18000 / ratetol=1.0 / qcomp=0.60 / qpmin=0 / qpmax=69 / qpstep=4 / ip_ratio=1.40 / aq=0
Default : Да
Forced : Нет
HANDLER_NAME : VideoHandler
Аудио
Идентификатор : 2
Формат : AC-3
Формат/Информация : Audio Coding 3
Расширение режима : CM (complete main)
Параметр Endianness формата : Big
Идентификатор кодека : A_AC3
Продолжительность : 2 м. 45 с.
Вид битрейта : Постоянный
Битрейт : 448 Кбит/сек
Каналы : 6 каналов
Расположение каналов : Front: L C R, Side: L R, LFE
Частота : 48,0 КГц
Частота кадров : 31,250 кадров/сек (1536 spf)
Битовая глубина : 32 бит
Метод сжатия : С потерями
Задержка видео : -5 мс.
Размер потока : 8,85 Мбайт (2%)
Default : Да
Forced : Нет
HANDLER_NAME : SoundHandler
Скриншоты:
[Профиль] [ЛС]
Кто просматривает тему:

Показать сообщения:    

Текущее время: Сегодня 13:51

Часовой пояс: GMT



Вы не можете начинать темы
Вы не можете отвечать на сообщения
Вы не можете редактировать свои сообщения
Вы не можете удалять свои сообщения
Вы не можете голосовать в опросах
Вы не можете прикреплять файлы к сообщениям
Вы не можете скачивать файлы