Чудовищная ночь / Mischief Night (Трэвис С. Бэйкер / Travis Baker) [2014, США, ужасы, HDRip] VO (XixiDok)

 
Автор Сообщение

Создавать темы 14-Июл-2014 09:08

Чудовищная ночь / Mischief Night
Страна: США
Жанр: ужасы
Год выпуска: 2014
Продолжительность: 01:27:09
Перевод: Одноголосый закадровый XixiDok
Cубтитры: нет
Оригинальная аудиодорожка: нет
Режиссер: Трэвис С. Бэйкер / Travis Baker
В ролях: Брук Энн Смит, Марк Валера, Никки Лимо, Мэтт Энджел, Малкольм МакДауэлл, Эрик Палладино, Дэниэл Браун, Брэкстон Дэвис, Джордан Леви
Описание: Кейли, как большинство девочек ее возраста, подрабатывает детской сиделкой, ворует из кабинета ликер родителей, имеет поклонников. Единственное различие между Кейли и другими девушками в том, что мальчик, который любит ее, хочет ее убить.
Доп. информация:
Kinopoisk
IMDB
Sample
Качество видео: HDRip
Формат видео: AVI
Видео: Xvid 640x272 23.976fps 984 Kbps
Аудио: MP3 44100Hz stereo 192kbps

MediaInfo

General
Complete name : D:\Mischief.Night.2014.HDRip.avi
Format : AVI
Format/Info : Audio Video Interleave
File size : 739 MiB
Duration : 1h 27mn
Overall bit rate : 1 185 Kbps
Writing application : VirtualDubMod 1.5.10.3 (build 2550/release)
Writing library : VirtualDubMod build 2550/release
Video
ID : 0
Format : MPEG-4 Visual
Format profile : Advanced Simple@L5
Format settings, BVOP : Yes
Format settings, QPel : No
Format settings, GMC : No warppoints
Format settings, Matrix : Default (H.263)
Codec ID : XVID
Codec ID/Hint : XviD
Duration : 1h 27mn
Bit rate : 984 Kbps
Width : 640 pixels
Height : 272 pixels
Display aspect ratio : 2.35:1
Frame rate : 23.976 fps
Color space : YUV
Chroma subsampling : 4:2:0
Bit depth : 8 bits
Scan type : Progressive
Compression mode : Lossy
Bits/(Pixel*Frame) : 0.236
Stream size : 613 MiB (83%)
Writing library : XviD 65
Audio
ID : 1
Format : MPEG Audio
Format version : Version 1
Format profile : Layer 3
Codec ID : 55
Codec ID/Hint : MP3
Duration : 1h 27mn
Bit rate mode : Constant
Bit rate : 192 Kbps
Channel count : 2 channels
Sampling rate : 44.1 KHz
Compression mode : Lossy
Stream size : 120 MiB (16%)
Alignment : Split accross interleaves
Interleave, duration : 42 ms (1.00 video frame)
Interleave, preload duration : 500 ms

Скриншот c названием фильма

Скриншоты

 
Кто просматривает тему:

Форум Тема Автор Размер
Зарубежные мультфильмы Дитя чудовища / Bakemono no Ko (2015) НDRip | L2 BOSS 1.45 GB
Аниме [HD 720p, 1080p] Дитя Чудовища / Bakemono no Ko / The Boy and the Beast (2015) BDRip 1080p от NNNB | L, L2, L3 Russian Mafia 7.13 GB
Фильмы (HD Rips | 720p, 1080p) Красавец и чудовище (Иван Криворучко) [2014, Россия, мелодрама, HDTV (1080i] TorrentFilm 6.32 GB
Зарубежные сериалы Красавица и Чудовище / Beauty and the Beast / Сезон: 1 / Серии: 1-22 (22) (Гэри Фледер) [2012, драма, криминал, WEB-DL 720p] MVO (Lostfilm) E.S.P. 31.06 GB
Зарубежные сериалы Красавица и Чудовище / Beauty and the Beast / Сезон: 2 / Серии: 1-22 (22) (Гэри Фледер) [2013, драма, криминал, WEB-DL 720p] MVO (Lostfilm) E.S.P. 30.67 GB
Зарубежные сериалы Красавица и чудовище / Beauty and the Beast [S03] (2015) WEB-DL 1080р | LostFilm достали все 22.87 GB
Зарубежные сериалы Красавица и Чудовище / Beauty and the Beast [S04] (2016) WEB-DL 720p | LostFilm достали все 18.12 GB
Зарубежные сериалы Красавица и чудовище / Beauty and the Beast [S04] (2016) WEB-DLRip 1080р | LostFilm Russian Mafia 22.85 GB
Показать сообщения:    

Текущее время: Сегодня 10:09

Часовой пояс: GMT



Вы не можете начинать темы
Вы не можете отвечать на сообщения
Вы не можете редактировать свои сообщения
Вы не можете удалять свои сообщения
Вы не можете голосовать в опросах
Вы не можете прикреплять файлы к сообщениям
Вы не можете скачивать файлы