Чудовище Призрачного озера / Монстр Призрачного озера / The Monster of Phantom Lake (Кристофер Мим / Christopher R. Mihm) [2006, США, фантастика, комедия, DVDRip] VO (Котов) + Original Eng + Sub Rus

 
Автор Сообщение

TorrentFilm ®

Пол:

Стаж: 2 года

Сообщений: 7741



Награды: Нет

Торрент-статистика

Создавать темы 23-Янв-2016 00:08

[Цитировать]

Чудовище Призрачного озера / Монстр Призрачного озера / The Monster of Phantom Lake Страна: США
Жанр: фантастика, комедия
Год выпуска: 2006
Продолжительность: 01:37:28
Перевод: Одноголосый закадровый Вячеслав Котов
Cубтитры: русские (Severniy), английские
Оригинальная аудиодорожка: английский
Режиссер: Кристофер Мим / Christopher R. Mihm
В ролях: Джош Крейг / Josh Craig, Лея Хортон / Leigha Horton, Диэнн МакДоналд / Deanne McDonald и другие
Описание: Монстр, появившийся на свет из-за выплеска радиации, терроризирует выбравшихся на природу провести свой тихий уик-енд жителей Висконсина. Умопомрачительный сай-фай в стиле дешевой фантастики 50-х годов!-За перевод Вячеслава Котова спасибо Ivanov.
За перевод Severniy спасибо e-ball, Mil Mascaras, punk and destroy, ChesteR.-Релиз:

videodemons-Качество видео: DVDRip
Формат видео: AVI
Видео: XviD 704x400 23.976fps 1812 Kbps
Аудио: 48 kHz, AC 3, 2 ch, 192 Kbps Вячеслав Котов
Аудио: 48 kHz, AC 3, 2 ch, 192 kbps english
Формат субтитров: softsub (srt)

MediaInfo

D:\The Monster of Phantom Lake\The Monster of Phantom Lake.avi
General
Complete name : D:\The Monster of Phantom Lake\The Monster of Phantom Lake.avi
Format : AVI
Format/Info : Audio Video Interleave
File size : 1.50 GiB
Duration : 1h 37mn
Overall bit rate : 2 209 Kbps
Writing application : VirtualDubMod 1.5.10.2 (build 2542/release)
Writing library : VirtualDubMod build 2542/release
Video #0
ID : 0
Format : MPEG-4 Visual
Format profile : Advanced Simple@L5
Format settings, BVOP : 1
Format settings, QPel : No
Format settings, GMC : No warppoints
Format settings, Matrix : Custom
Codec ID : XVID
Codec ID/Hint : XviD
Duration : 1h 37mn
Bit rate : 1 812 Kbps
Width : 704 pixels
Height : 400 pixels
Display aspect ratio : 16:9
Frame rate : 23.976 fps
Color space : YUV
Chroma subsampling : 4:2:0
Bit depth : 8 bits
Scan type : Progressive
Compression mode : Lossy
Bits/(Pixel*Frame) : 0.268
Stream size : 1.23 GiB (82%)
Writing library : XviD 1.2.1 (UTC 2008-12-04)
Audio #1
ID : 1
Format : AC-3
Format/Info : Audio Coding 3
Mode extension : CM (complete main)
Codec ID : 2000
Duration : 1h 37mn
Bit rate mode : Constant
Bit rate : 192 Kbps
Channel(s) : 2 channels
Channel positions : Front: L R
Sampling rate : 48.0 KHz
Bit depth : 16 bits
Compression mode : Lossy
Stream size : 133 MiB (9%)
Alignment : Split accross interleaves
Interleave, duration : 42 ms (1.00 video frame)
Interleave, preload duration : 500 ms
Language : English
Audio #2
ID : 2
Format : AC-3
Format/Info : Audio Coding 3
Mode extension : CM (complete main)
Codec ID : 2000
Duration : 1h 37mn
Bit rate mode : Constant
Bit rate : 192 Kbps
Channel(s) : 2 channels
Channel positions : Front: L R
Sampling rate : 48.0 KHz
Bit depth : 16 bits
Compression mode : Lossy
Stream size : 133 MiB (9%)
Alignment : Split accross interleaves
Interleave, duration : 42 ms (1.00 video frame)
Interleave, preload duration : 500 ms

Скриншоты

[Профиль] [ЛС]
Кто просматривает тему:

Форум Тема Автор Размер
Зарубежные мультфильмы Дитя чудовища / Bakemono no Ko (2015) НDRip | L2 BOSS 1.45 GB
Аниме [HD 720p, 1080p] Дитя Чудовища / Bakemono no Ko / The Boy and the Beast (2015) BDRip 1080p от NNNB | L, L2, L3 Russian Mafia 7.13 GB
Фильмы (HD Rips | 720p, 1080p) Красавец и чудовище (Иван Криворучко) [2014, Россия, мелодрама, HDTV (1080i] TorrentFilm 6.32 GB
Зарубежные сериалы Красавица и Чудовище / Beauty and the Beast / Сезон: 1 / Серии: 1-22 (22) (Гэри Фледер) [2012, драма, криминал, WEB-DL 720p] MVO (Lostfilm) E.S.P. 31.06 GB
Зарубежные сериалы Красавица и Чудовище / Beauty and the Beast / Сезон: 2 / Серии: 1-22 (22) (Гэри Фледер) [2013, драма, криминал, WEB-DL 720p] MVO (Lostfilm) E.S.P. 30.67 GB
Зарубежные сериалы Красавица и чудовище / Beauty and the Beast [S03] (2015) WEB-DL 1080р | LostFilm достали все 22.87 GB
Зарубежные сериалы Красавица и Чудовище / Beauty and the Beast [S04] (2016) WEB-DL 720p | LostFilm достали все 18.12 GB
Зарубежные сериалы Красавица и чудовище / Beauty and the Beast [S04] (2016) WEB-DLRip 1080р | LostFilm Russian Mafia 22.85 GB
Показать сообщения:    

Текущее время: Сегодня 16:47

Часовой пояс: GMT



Вы не можете начинать темы
Вы не можете отвечать на сообщения
Вы не можете редактировать свои сообщения
Вы не можете удалять свои сообщения
Вы не можете голосовать в опросах
Вы не можете прикреплять файлы к сообщениям
Вы не можете скачивать файлы