Чудеса / Крестный отец из Кантона / Qi ji (1989) BDRip 1080p | JPN Transfer | от Freak Chaos | P

 
Автор Сообщение

Russian Mafia ®

Пол:

Стаж: 1 год 8 месяцев

Сообщений: 4253



Награды: 10 (Подробнее)

Mega Seeder 4 (Количество: 1) За внесенный вклад в развитие сайта (Количество: 1) Mega Seeder 2 (Количество: 1)
Торрент-статистика

Создавать темы 13-Окт-2016 06:10

[Цитировать]

Информация о фильме
Название: Чудеса
Оригинальное название: Qi ji
Год выхода: 1989
Жанр: Боевик, комедия
Режиссер: Джеки Чан
В ролях: Джеки Чан, Анита Муи, Гуа А-Лэ, Чун Хсианг Ко, Ма У, Билл Тун, Кенни Би, Энтони Карпио, Энтони Чан
О фильме:
В поисках лучшей жизни и без гроша в кармане Чарли приезжает в Гонконг. Свои последние центы он отдает бедной торговке за цветок розы, который должен принести ему удачу. И «счастливый» случай не заставил себя ждать. Чарли становится невольным участником перестрелки двух мафиозных кланов и выносит из-под огня главного босса одной из гангстерских группировок.
Умирая, главарь мафии назначает Чарли своим наследником и Большим Братом своего клана. В роли «крестного отца» доброй половины криминального Гонконга Чарли приходится проявлять чудеса ловкости и изобретательности…
Страна: Гонконг
Продолжительность: 01:58:31
Перевод: Профессиональный многоголосый закадровый (Инис)
Файл
Кодек: x264, AVC
Качество: BDRip 1080p
Видео: 1920x744, 8888 kbps, 23,976 fps
Звук: AC-3, 224 kbps, 48 KHz, 2 channels
_________________________________________________________________________
Внимание! Присутствуют неотключаемые японские субтитры сбоку экрана (как на скриншотах). Картинка гораздо более качественная, чем на китайском блурике. Сабы просмотру не мешают. Наслаждайтесь!
_________________________________________________________________________

MediaInfo

General
Unique ID : 194205564358767971928727887766398717253 (0x921AA194C8C4215AB6924D2C2AEC4D45)
Complete name : Чудеса [Qi ji, 1989] 1080p (JPN Transfer).mkv
Format : Matroska
Format version : Version 4 / Version 2
File size : 7.55 GiB
Duration : 1 h 58 min
Overall bit rate : 9 114 kb/s
Encoded date : UTC 2016-10-10 15:40:49
Writing application : mkvmerge v7.3.0 ('Nouages') 32bit built on Oct 22 2014 18:44:01
Writing library : libebml v1.3.0 + libmatroska v1.4.1
Video
ID : 1
Format : AVC
Format/Info : Advanced Video Codec
Format profile : High@L4.1
Format settings, CABAC : Yes
Format settings, ReFrames : 5 frames
Codec ID : V_MPEG4/ISO/AVC
Duration : 1 h 58 min
Bit rate : 8 888 kb/s
Width : 1 920 pixels
Height : 744 pixels
Display aspect ratio : 2.581
Frame rate mode : Constant
Frame rate : 23.976 (24000/1001) FPS
Color space : YUV
Chroma subsampling : 4:2:0
Bit depth : 8 bits
Scan type : Progressive
Bits/(Pixel*Frame) : 0.260
Stream size : 7.36 GiB (98%)
Title : Miracles (1989)
Writing library : x264 core 148 r2638 7599210
Encoding settings : cabac=1 / ref=5 / deblock=1:0:0 / analyse=0x3:0x133 / me=umh / subme=9 / psy=1 / psy_rd=1.00:0.00 / mixed_ref=1 / me_range=16 / chroma_me=1 / trellis=2 / 8x8dct=1 / cqm=0 / deadzone=21,11 / fast_pskip=1 / chroma_qp_offset=-2 / threads=6 / lookahead_threads=1 / sliced_threads=0 / nr=0 / decimate=1 / interlaced=0 / bluray_compat=0 / constrained_intra=0 / bframes=3 / b_pyramid=2 / b_adapt=2 / b_bias=0 / direct=3 / weightb=1 / open_gop=0 / weightp=2 / keyint=240 / keyint_min=23 / scenecut=40 / intra_refresh=0 / rc_lookahead=60 / rc=2pass / mbtree=1 / bitrate=8888 / ratetol=1.0 / qcomp=0.60 / qpmin=0 / qpmax=51 / qpstep=4 / cplxblur=20.0 / qblur=0.5 / vbv_maxrate=62500 / vbv_bufsize=78125 / nal_hrd=none / filler=0 / ip_ratio=1.40 / aq=1:1.00
Default : Yes
Forced : No
Audio
ID : 2
Format : AC-3
Format/Info : Audio Coding 3
Mode extension : CM (complete main)
Format settings, Endianness : Big
Codec ID : A_AC3
Duration : 1 h 58 min
Bit rate mode : Constant
Bit rate : 224 kb/s
Channel(s) : 2 channels
Channel positions : Front: L R
Sampling rate : 48.0 kHz
Frame rate : 31.250 FPS (1536 spf)
Compression mode : Lossy
Stream size : 190 MiB (2%)
Title : Многоголосый (Инис)
Language : Russian
Default : Yes
Forced : No

Скриншоты




[Профиль] [ЛС]

indicom

Пол:

Стаж: 7 дней

Сообщений: 5

Откуда: Харьков



Награды: Нет

Торрент-статистика

Создавать темы 27-Ноя-2016 18:32 (спустя 1 месяц 14 дней)

[Цитировать]

Классный фильм!!! Отличная раздача!!!
[Профиль] [ЛС]
Показать сообщения:    

Текущее время: Сегодня 16:56

Часовой пояс: GMT



Вы не можете начинать темы
Вы не можете отвечать на сообщения
Вы не можете редактировать свои сообщения
Вы не можете удалять свои сообщения
Вы не можете голосовать в опросах
Вы не можете прикреплять файлы к сообщениям
Вы не можете скачивать файлы