Чудеса с небес / Miracles from Heaven (2016) BDRip 720p от AleksSin | iTunes

 
Автор Сообщение

AleksSin ®

Пол:

Стаж: 5 лет 11 месяцев

Сообщений: 218



Награды: 4 (Подробнее)

Mega Seeder 2 (Количество: 1) Mega Seeder 1 (Количество: 1) Mega Seeder 4 (Количество: 1)
Торрент-статистика

Создавать темы 12-Июл-2016 10:15

[Цитировать]

Чудеса с небес / Miracles from HeavenГод выхода: 2016
Жанр: драма
Страна: США
Студия: Affirm Films, TriStar Pictures
Продолжительность: 01:49:15
Перевод: Професиональный (многоголосый, закадровый) [iTunes]
Субтитры: Русские, английские (srt)
Навигация по главам: Есть
Режиссер: Патрисия Ригген / Patricia Riggen
В ролях: Дженнифер Гарнер, Кайли Роджерс, Мартин Хендерсон, Брайтон Шарбино, Кортни Фанслер, Куин Латифа, Брайс Зенткович, Эухенио Дербес, Келли Коллинз, Джон Кэрролл Линч
О фильме:
Удивительная история, в которую невозможно поверить, не увидев собственными глазами. Когда кажется все потеряно, и впереди только боль и отчаяние, небеса дарят надежду тем, кто верит.

Файл
Кодек: х264
Качество: BDRip 720p
Видео: MPEG-4 AVC, 5878 Кбит/с, 1280x692 (1,85:1), 23,976 кадра/сек, 0.277 bit/pixel
Аудио #1: Русский 48 kHz, AC3, 5.1, 384 Kbps | Профессиональный многоголосый, закадровый), iTunes
Аудио #2: Английский (DTS, 6 ch, 1509 Кбит/с) - Оригинал

MediaInfo

Log
x264 [info]: frame I:1370 Avg QP:15.93 size:147741
x264 [info]: frame P:34727 Avg QP:17.03 size: 60007
x264 [info]: frame B:120742 Avg QP:18.53 size: 21920
x264 [info]: consecutive B-frames: 1.8% 2.7% 5.0% 37.2% 13.2% 27.1% 6.9% 4.6% 1.5%
Общее
Уникальный идентификатор : 222448875806350292063977501097625966604 (0xA75A18588B3D366FA0B451A729A8D80C)
Полное имя : S:ФильмыЧудеса с небес. 2016. BDRip 720p (AleksSin).mkv
Формат : Matroska
Версия формата : Version 2
Размер файла : 6,04 Гбайт
Продолжительность : 1 ч. 49 м.
Общий поток : 7929 Кбит/сек
Дата кодирования : UTC 2016-07-12 05:59:04
Программа кодирования : mkvmerge v7.8.0 ('River Man') 32bit built on Apr 3 2015 12:11:22
Библиотека кодирования : libebml v1.3.1 + libmatroska v1.4.2
Видео
Идентификатор : 1
Формат : AVC
Формат/Информация : Advanced Video Codec
Профиль формата : High@L4.1
Параметр CABAC формата : Да
Параметр ReFrames формата : 9 кадров
Идентификатор кодека : V_MPEG4/ISO/AVC
Продолжительность : 1 ч. 49 м.
Битрейт : 5878 Кбит/сек
Ширина : 1280 пикселей
Высота : 692 пикселя
Соотношение сторон : 1,85:1
Режим частоты кадров : Постоянный
Частота кадров : 23,976 кадра/сек
Цветовое пространство : YUV
Субдискретизация насыщенности : 4:2:0
Битовая глубина : 8 бит
Тип развёртки : Прогрессивная
Бит/(Пиксели*Кадры) : 0.277
Размер потока : 4,48 Гбайт (74%)
Библиотека кодирования : x264 core 148 r2692 64f4e24
Настройки программы : cabac=1 / ref=9 / deblock=1:-3:-3 / analyse=0x3:0x133 / me=umh / subme=10 / psy=1 / psy_rd=1.00:0.10 / mixed_ref=1 / me_range=32 / chroma_me=1 / trellis=2 / 8x8dct=1 / cqm=0 / deadzone=21,11 / fast_pskip=0 / chroma_qp_offset=-3 / threads=12 / lookahead_threads=2 / sliced_threads=0 / nr=0 / decimate=1 / interlaced=0 / bluray_compat=0 / constrained_intra=0 / bframes=8 / b_pyramid=2 / b_adapt=2 / b_bias=0 / direct=3 / weightb=1 / open_gop=0 / weightp=2 / keyint=240 / keyint_min=23 / scenecut=40 / intra_refresh=0 / rc_lookahead=40 / rc=crf / mbtree=0 / crf=17.8 / qcomp=0.70 / qpmin=0 / qpmax=69 / qpstep=4 / vbv_maxrate=50000 / vbv_bufsize=62500 / crf_max=0.0 / nal_hrd=none / filler=0 / ip_ratio=1.30 / pb_ratio=1.20 / aq=3:0.85
Язык : English
Default : Да
Forced : Нет
Аудио #1
Идентификатор : 2
Формат : AC-3
Формат/Информация : Audio Coding 3
Расширение режима : CM (complete main)
Параметр Endianness формата : Big
Идентификатор кодека : A_AC3
Продолжительность : 1 ч. 49 м.
Вид битрейта : Постоянный
Битрейт : 384 Кбит/сек
Каналы : 6 каналов
Расположение каналов : Front: L C R, Side: L R, LFE
Частота : 48,0 КГц
Битовая глубина : 16 бит
Метод сжатия : С потерями
Размер потока : 299 Мбайт (5%)
Default : Да
Forced : Нет
Аудио #2
Идентификатор : 3
Формат : DTS
Формат/Информация : Digital Theater Systems
Режим : 16
Параметр Endianness формата : Big
Идентификатор кодека : A_DTS
Продолжительность : 1 ч. 49 м.
Вид битрейта : Постоянный
Битрейт : 1509 Кбит/сек
Каналы : 6 каналов
Расположение каналов : Front: L C R, Side: L R, LFE
Частота : 48,0 КГц
Битовая глубина : 24 бит
Метод сжатия : С потерями
Размер потока : 1,15 Гбайт (19%)
Default : Нет
Forced : Нет
Текст #1
Идентификатор : 4
Формат : UTF-8
Идентификатор кодека : S_TEXT/UTF8
Идентификатор кодека/Информация : UTF-8 Plain Text
Default : Да
Forced : Нет
Текст #2
Идентификатор : 5
Формат : UTF-8
Идентификатор кодека : S_TEXT/UTF8
Идентификатор кодека/Информация : UTF-8 Plain Text
Default : Нет
Forced : Нет
Текст #3
Идентификатор : 6
Формат : UTF-8
Идентификатор кодека : S_TEXT/UTF8
Идентификатор кодека/Информация : UTF-8 Plain Text
Default : Нет
Forced : Нет
Меню
00:00:00.000 : en:
00:09:46.336 : en:
00:16:54.305 : en:
00:25:52.092 : en:
00:32:45.213 : en:
00:37:26.202 : en:
00:45:49.538 : en:
00:53:31.458 : en:
00:58:18.245 : en:
01:07:21.162 : en:
01:13:46.714 : en:
01:19:51.036 : en:
01:26:40.237 : en:
01:33:12.128 : en:
01:40:24.060 : en:
01:46:18.872 : en:

Скриншоты

[Профиль] [ЛС]
Показать сообщения:    

Текущее время: Сегодня 20:05

Часовой пояс: GMT



Вы не можете начинать темы
Вы не можете отвечать на сообщения
Вы не можете редактировать свои сообщения
Вы не можете удалять свои сообщения
Вы не можете голосовать в опросах
Вы не можете прикреплять файлы к сообщениям
Вы не можете скачивать файлы