Что творят мужчины! (Сарик Андреасян) [2013, Россия, комедия, BDRip 1080p]

 
Автор Сообщение

TorrentFilm ®

Пол:

Стаж: 2 года

Сообщений: 7741



Награды: Нет

Торрент-статистика

Создавать темы 01-Янв-2016 00:13

[Цитировать]

Что творят мужчины
Страна: Россия
Студия: Enjoy Movies, Renovatio ent.
Жанр: комедия
Год выпуска: 2013
Продолжительность: 01:26:36
Субтитры: нет
Навигация по главам: есть
Режиссер: Сарик Андреасян
В ролях: Таир Мамедов, Роман Юнусов, Константин Крюков, Гавриил Гордеев, Равшана Куркова, Анна Хилькевич, Кристина Асмус, Наталия Медведева, Екатерина Скулкина, Даша Астафьева, Дмитрий Нагиев, Андрей Федорцов, Виктория Таранец, Алексей Лихницкий, Андрей Свиридов, Михаил Крылов, Михаил Павлик, Зарина Мухитдинова, Валентина Колесникова, Варвара Третьякова, Глеб Сердюков, Александра Сабирова, Вячеслав Барковский, Владимир Шишкин, Александр Соловьев, Алена Тимченко, Гульнара Саитова, Михаил Кротевич, Ольга Белоусова, Елена Кочеткова, Алла Данилова, Мария Данилова, Иван Руденко, Денис Коржов, Ксения Архангелова, Кларисса Барская, Роза Ларичева, Татьяна Ольховатова, Сергей Самохин, Янина Когут
Описание: Неприступные женщины, полмиллиона долларов и четверо героев которым предстоит принять участие в игре «Секс-лото», организованное экстравагантным миллионером. Суть игры — за пять дней соблазнить как можно больше женщин на морском курорте. Получив задания, великолепная четверка бросается в бой. Но все цели совсем не простые — бабушка, жена олигарха, девственница, феминистка, сектантка — и приз получит только лучший. Каждый применит свой фирменный арсенал, и все будут близки к тому, чтобы получить заветный куш, записав новых жертв в список своих мужских побед. Но неожиданно в «дело секса» вмешается любовь.

Релиз: fanatus
Качество видео: BDRip 1080p
Исходник: Blu-Ray (1080p)
Контейнер: MKV
Видео: MPEG-4 AVC, 9000 kbps , 1916x864 (2.20:1), 24.000 fps, 0.227 bit/pixel
Аудио: DTS, 6 ch, 48 kHz, 1510 kbps

MediaInfo

General
Unique ID : 214074329767376977534384472560396616985 (0xA10D375909B9BC18BD9174774F8B4519)
Complete name : D:\Chto.tvorjat.muzhchiny.2013.x264.BDRip.1080p.fanatus.mkv
Format : Matroska
Format version : Version 2
File size : 6.35 GiB
Duration : 1h 26mn
Overall bit rate : 10.5 Mbps
Movie name : Chto tvoryat muzhchiny (2013) - fanatus
Encoded date : UTC 2013-04-27 17:41:56
Writing application : mkvmerge v3.4.0 ('Rapunzel') сборка от May 15 2010 09:38:20
Writing library : libebml v0.8.0 + libmatroska v0.9.0
Video
ID : 1
Format : AVC
Format/Info : Advanced Video Codec
Format profile : High@L4.1
Format settings, CABAC : Yes
Format settings, ReFrames : 5 frames
Codec ID : V_MPEG4/ISO/AVC
Duration : 1h 26mn
Bit rate : 9 000 Kbps
Width : 1 916 pixels
Height : 864 pixels
Display aspect ratio : 2.2:1
Frame rate : 24.000 fps
Color space : YUV
Chroma subsampling : 4:2:0
Bit depth : 8 bits
Scan type : Progressive
Bits/(Pixel*Frame) : 0.227
Stream size : 5.31 GiB (84%)
Title : Chto tvoryat muzhchiny (2013)
Writing library : x264 core 130 r2273 b3065e6
Encoding settings : cabac=1 / ref=5 / deblock=1:-3:-3 / analyse=0x3:0x113 / me=umh / subme=11 / psy=1 / psy_rd=0.95:0.00 / mixed_ref=1 / me_range=48 / chroma_me=1 / trellis=2 / 8x8dct=1 / cqm=0 / deadzone=21,11 / fast_pskip=0 / chroma_qp_offset=-2 / threads=16 / lookahead_threads=2 / sliced_threads=0 / nr=0 / decimate=0 / interlaced=0 / bluray_compat=0 / constrained_intra=0 / bframes=9 / b_pyramid=2 / b_adapt=2 / b_bias=0 / direct=3 / weightb=1 / open_gop=0 / weightp=2 / keyint=240 / keyint_min=24 / scenecut=40 / intra_refresh=0 / rc_lookahead=240 / rc=2pass / mbtree=0 / bitrate=9000 / ratetol=1.0 / qcomp=0.70 / qpmin=0 / qpmax=69 / qpstep=4 / cplxblur=20.0 / qblur=0.5 / vbv_maxrate=50000 / vbv_bufsize=62500 / nal_hrd=none / ip_ratio=1.40 / pb_ratio=1.30 / aq=1:0.90
Language : Russian
Default : Yes
Forced : No
Color primaries : BT.709-5, BT.1361, IEC 61966-2-4, SMPTE RP177
Transfer characteristics : BT.709-5, BT.1361
Matrix coefficients : BT.709-5, BT.1361, IEC 61966-2-4 709, SMPTE RP177
Audio
ID : 2
Format : DTS
Format/Info : Digital Theater Systems
Codec ID : A_DTS
Duration : 1h 26mn
Bit rate mode : Constant
Bit rate : 1 510 Kbps
Channel(s) : 6 channels
Channel positions : Front: L C R, Side: L R, LFE
Sampling rate : 48.0 KHz
Bit depth : 16 bits
Compression mode : Lossy
Stream size : 935 MiB (14%)
Title : Original
Language : Russian
Default : Yes
Forced : No
Menu
00:00:00.000 : ru:Chapter 00
00:05:04.333 : ru:Chapter 01
00:10:08.833 : ru:Chapter 02
00:16:56.625 : ru:Chapter 03
00:23:02.833 : ru:Chapter 04
00:32:08.583 : ru:Chapter 05
00:38:21.125 : ru:Chapter 06
00:45:30.750 : ru:Chapter 07
00:55:24.916 : ru:Chapter 08
01:03:07.750 : ru:Chapter 09
01:08:40.000 : ru:Chapter 10
01:15:34.583 : ru:Chapter 11

x264 [info]

---[NoImage] raw [info]: 1916x864p 1:1 @ 24/1 fps (cfr)
---[NoImage] x264 [info]: using SAR=1/1
---[NoImage] x264 [info]: using cpu capabilities: MMX2 SSE2Fast SSEMisalign LZCNT
---[NoImage] x264 [info]: profile High, level 4.1
---[NoImage]
---[NoImage] x264 [info]: frame I:1397 Avg QP:12.12 size:198050
---[NoImage] x264 [info]: frame P:33437 Avg QP:14.80 size: 81521
---[NoImage] x264 [info]: frame B:89880 Avg QP:16.44 size: 31565
---[NoImage] x264 [info]: consecutive B-frames: 5.0% 5.4% 13.4% 29.8% 18.7% 24.7% 2.3% 0.2% 0.2% 0.2%
---[NoImage] x264 [info]: mb I I16..4: 17.8% 45.6% 36.6%
---[NoImage] x264 [info]: mb P I16..4: 5.1% 19.4% 7.4% P16..4: 26.1% 25.6% 8.2% 0.0% 0.0% skip: 8.2%
---[NoImage] x264 [info]: mb B I16..4: 1.7% 3.7% 1.5% B16..8: 31.1% 18.4% 3.0% direct: 8.1% skip:32.3% L0:41.5% L1:42.1% BI:16.3%
---[NoImage] x264 [info]: 8x8 transform intra:57.2% inter:46.9%
---[NoImage] x264 [info]: direct mvs spatial:99.1% temporal:0.9%
---[NoImage] x264 [info]: coded y,uvDC,uvAC intra: 72.5% 72.1% 61.1% inter: 27.0% 31.9% 15.6%
---[NoImage] x264 [info]: i16 v,h,dc,p: 36% 22% 12% 30%
---[NoImage] x264 [info]: i8 v,h,dc,ddl,ddr,vr,hd,vl,hu: 14% 15% 15% 7% 8% 9% 9% 9% 12%
---[NoImage] x264 [info]: i4 v,h,dc,ddl,ddr,vr,hd,vl,hu: 22% 19% 30% 3% 5% 5% 5% 4% 7%
---[NoImage] x264 [info]: i8c dc,h,v,p: 27% 39% 21% 14%
---[NoImage] x264 [info]: Weighted P-Frames: Y:0.9% UV:0.5%
---[NoImage] x264 [info]: ref P L0: 54.2% 9.9% 19.6% 8.2% 7.1% 1.0% 0.0%
---[NoImage] x264 [info]: ref B L0: 79.1% 14.8% 4.7% 1.4%
---[NoImage] x264 [info]: ref B L1: 93.1% 6.9%
---[NoImage] x264 [info]: kb/s:8990.18
---[NoImage] encoded 124714 frames, 5.94 fps, 8990.18 kb/s

Скриншот c названием фильма

Скриншоты

[Профиль] [ЛС]
Кто просматривает тему:

Показать сообщения:    

Текущее время: Сегодня 08:51

Часовой пояс: GMT



Вы не можете начинать темы
Вы не можете отвечать на сообщения
Вы не можете редактировать свои сообщения
Вы не можете удалять свои сообщения
Вы не можете голосовать в опросах
Вы не можете прикреплять файлы к сообщениям
Вы не можете скачивать файлы