Что такое колхоз? / Kas tas ir kolhozs? (Розалия Стиебра) [1981, Рисованный мультфильм, DVDRip] VO

 
Автор Сообщение

TorrentFilm ®

Пол:

Стаж: 2 года

Сообщений: 7741



Награды: Нет

Торрент-статистика

Создавать темы 14-Окт-2015 00:11

[Цитировать]

Что такое колхоз? / Kas tas ir kolhozs?
Страна: СССР
Жанр: Рисованный мультфильм
Продолжительность: 00:08:56
Год выпуска: 1981
Перевод: любительский (одноголосый закадровый)
Русские субтитры: нет
Режиссёр: Розалия Стиебра
Описание: Мультфильм Что такое − колхоз? от режиссера Розалины Стиебры был призван популяризировать это явление среди жителей глубинки огромного Советского Союза, ведь все мы знаем, что исторический процесс коллективизации проходил болезненно, и многие отказывались отдавать свое имущество в коллективное пользование, понимая, что это не так уж и выгодно, как об этом рассказывает власть. Не исключено, что картина была сделана на заказ правительства.
Доп. информация: «Телефильм-Рига»
Раздача группы:
Качество: DVDRip
Формат: AVI
Видео: 720x560 (1.29:1), 25 fps, XviD build 50 ~2367 kbps avg, 0.23 bit/pixel
Аудио: 48 kHz, MPEG Layer 3, 2 ch, ~128.00 kbps avg
Субтитры: нет

Подробные технические данные

Format : AVIFormat/Info : Audio Video InterleaveFile size : 160 MiBDuration : 8mn 56sOverall bit rate : 2 506 KbpsWriting application : VirtualDubMod 1.5.10.2 (build 2540/release)Writing library : VirtualDubMod build 2540/release
VideoID : 0Format : MPEG-4 VisualFormat profile : Advanced Simple@L5Format settings, BVOP : 1Format settings, QPel : NoFormat settings, GMC : No warppointsFormat settings, Matrix : CustomCodec ID : XVIDCodec ID/Hint : XviDDuration : 8mn 56sBit rate : 2 368 KbpsWidth : 720 pixelsHeight : 560 pixelsDisplay aspect ratio : 1.286Frame rate : 25.000 fpsColor space : YUVChroma subsampling : 4:2:0Bit depth : 8 bitsScan type : ProgressiveCompression mode : LossyBits/(Pixel*Frame) : 0.235Stream size : 151 MiB (94%)Writing library : XviD 1.2.1 (UTC 2008-12-04)
AudioID : 1Format : MPEG AudioFormat version : Version 1Format profile : Layer 3Mode : Joint stereoMode extension : MS StereoCodec ID : 55Codec ID/Hint : MP3Duration : 8mn 56sBit rate mode : ConstantBit rate : 128 KbpsChannel(s) : 2 channelsSampling rate : 48.0 KHzCompression mode : LossyStream size : 8.18 MiB (5%)Alignment : Aligned on interleavesInterleave, duration : 40 ms (1.00 video frame)Interleave, preload duration : 504 msLanguage : Latvian, Lettish

Скриншоты

[Профиль] [ЛС]
Кто просматривает тему:

Показать сообщения:    

Текущее время: Сегодня 09:59

Часовой пояс: GMT



Вы не можете начинать темы
Вы не можете отвечать на сообщения
Вы не можете редактировать свои сообщения
Вы не можете удалять свои сообщения
Вы не можете голосовать в опросах
Вы не можете прикреплять файлы к сообщениям
Вы не можете скачивать файлы