Что сказал XIII съезд партии (о кооперации) [1925, мультипликационный фильм-плакат, DVDRip] Eng hardsub

 
Автор Сообщение

TorrentFilm ®

Пол:

Стаж: 2 года

Сообщений: 7741



Награды: Нет

Торрент-статистика

Создавать темы 08-Окт-2015 00:08

[Цитировать]

Что сказал XIII съезд партии (о кооперации)- Страна: СССР
Жанр: мультипликационный фильм-плакат
Продолжительность: 00:03:53
Год выпуска: 1925
Русские субтитры: нет-Режиссёр: неизвестен- | Релиз: -Описание: Фильм-плакат о выгоде кооперации и борьбе с торговцами.-Качество: DVDRip
Формат: AVI
Видео: 640x480 (1.33:1), 25 fps, XviD MPEG-4 ~1689 kbps avg, 0.22 bit/pixel
Аудио: 48 kHz, AC3 Dolby Digital, 2/0 (L,R) ch, ~224 kbps
Субтитры: английские вшитые (hardsub)

MediaInfo

GeneralComplete name : Что сказал XIII съезд партии (о кооперации).1925.XviD.AC3-rutracker.aviFormat : AVIFormat/Info : Audio Video InterleaveFile size : 53.6 MiBDuration : 3mn 53sOverall bit rate : 1 923 KbpsMovie name : Что сказал XIII съезд партии (о кооперации).1925.XviD.AC3-rutrackerWriting application : VirtualDubMod 1.5.10.2 (build 2542/release)Comment : РГ Мультфильмы / Rutracker.org
VideoID : 0Format : MPEG-4 VisualFormat profile : Advanced Simple@L5Format settings, BVOP : 2Format settings, QPel : NoFormat settings, GMC : No warppointsFormat settings, Matrix : CustomCodec ID : XVIDCodec ID/Hint : XviDDuration : 3mn 53sBit rate : 1 689 KbpsWidth : 640 pixelsHeight : 480 pixelsDisplay aspect ratio : 4:3Frame rate : 25.000 fpsColor space : YUVChroma subsampling : 4:2:0Bit depth : 8 bitsScan type : ProgressiveCompression mode : LossyBits/(Pixel*Frame) : 0.220Stream size : 47.1 MiB (88%)Writing library : XviD 65
AudioID : 1Format : AC-3Format/Info : Audio Coding 3Mode extension : CM (complete main)Format settings, Endianness : BigCodec ID : 2000Duration : 3mn 53sBit rate mode : ConstantBit rate : 224 KbpsChannel(s) : 2 channelsChannel positions : Front: L RSampling rate : 48.0 KHzCompression mode : LossyStream size : 6.24 MiB (12%)Alignment : Split accross interleavesInterleave, duration : 40 ms (1.00 video frame)Interleave, preload duration : 500 ms

Скриншоты

[Профиль] [ЛС]
Кто просматривает тему:

Показать сообщения:    

Текущее время: Сегодня 22:11

Часовой пояс: GMT



Вы не можете начинать темы
Вы не можете отвечать на сообщения
Вы не можете редактировать свои сообщения
Вы не можете удалять свои сообщения
Вы не можете голосовать в опросах
Вы не можете прикреплять файлы к сообщениям
Вы не можете скачивать файлы