Что не следует носить / Это лучше не носить / Сезон: 9 / Серии: 14 (26) / What Not To Wear (Скай Хилтон) [2011-2012, реалити, семейный, SATRip]

 
Автор Сообщение

reversefile ®

Пол:

Стаж: 4 года 5 месяцев

Сообщений: 842

Откуда: ReverseFile.org



Награды: Нет

Торрент-статистика

Создавать темы 24-Июл-2014 17:55

[Цитировать]

Это лучше не носить - Сезон 9- Год выпуска: 2011-2012
Страна: США
Жанр: реалити, семейный
Продолжительность: 14x ~ 00:42:30
Перевод: Профессиональный (многоголосый, закадровый) Discovery TLC
Cубтитры: нет
Режиссер: Джейсон Ромео, Синтия Брак, Скай Хилтон, Мэгги Зелтнер, Макарио Саркозо, Брэндон Филлипс.
В ролях: Стэйси Лондон/Stacy London, Клинтон Келли/Clinton Kelly, Карминди Бовьер/Carmindy, Тед Гибсон/Ted Gibson.
Описание: Программа о моде и стиле от телеканала TLC.
Полиция моды не спит! В каждом выпуске ведущие, эксперты по вопросам стиля, Стэйси Лондон и Клинтон Келли меняют облик дурно одетой героини программы по просьбе её друзей и родственников. Новый гардероб на $5000, прическа, макияж и ценный урок о том, что не следует носить будут даны лишь при одном условии: героиня распрощается со своей старой одеждой, а новую купит в лучших магазинах Нью-Йорка.- -Порядок серий указан в соответствии с их показом на американском TLC.
Качество: SATRip
Формат: AVI
Видео кодек: DivX
Аудио кодек: MP3
Видео: DivX 5, 720x448, 1.607, 1500 Kbps, 25.000 fps
Аудио: MP3, 192 Kbps, 48.0 Khz, 2 channels
Размер: 14x ~ 520 Мb. Список серий девятого сезона взят с сайта: tlc.howstuffworks.com
-СЭМПЛ-Список серий
-9x01 - Бэки (Becky)
9x02 - Ноэль (Noel)
9x03 - Джеки (Jacky)
9x04 - Хизэр (Heather)
9x05 - Эбони (Ebony)
9x06 - Джиллиан (Jillian)
9x07 - Ребекка С. (Rebecca S.)
9x08 - Джоди (Jodi)

9x09 - Бекка (Becca)
9x10 - Тенесса (Tenessa)
9x11 - Дженнифер (Jennifer)
9x12 - Кристин (Christine)
9x13 - Берил (Beryl)
9x14 - Анна (Anna)
9x15 - Дезери (Desiree)
9x16 - Кэти (Kathy)
9x17 - Лиэнн (Leigh Anne)
9x18 - Минда (Minda)
9x19 - Эми (Emi)
9x20 - Александра (Alexandra)
9x21 - Виктория (Victoria)
9x22 - Долли (Dollyl)
9x23 - Ванесса (Vanessa)
9x24 - Дебора (Deborah)
9x25 - Френсис (Frances)
9x26 - Ребекка (Rebecca)

MI

General
Complete name : C:\MOVIES\What Not to Wear. Season 9 (2011-2012)\9x02 Noel.avi
Format : AVI
Format/Info : Audio Video Interleave
File size : 505 MiB
Duration : 41mn 23s
Overall bit rate : 1 705 Kbps
Writing application : Lavf52.39.0
Writing library : VirtualDub build 32842/release
Video
ID : 0
Format : MPEG-4 Visual
Format profile : Simple@L1
Format settings, BVOP : No
Format settings, QPel : No
Format settings, GMC : No warppoints
Format settings, Matrix : Default (H.263)
Codec ID : DX50
Codec ID/Hint : DivX 5
Duration : 41mn 23s
Bit rate : 1 500 Kbps
Width : 720 pixels
Height : 448 pixels
Display aspect ratio : 1.607
Frame rate : 25.000 fps
Color space : YUV
Chroma subsampling : 4:2:0
Bit depth : 8 bits
Scan type : Progressive
Compression mode : Lossy
Bits/(Pixel*Frame) : 0.186
Stream size : 444 MiB (88%)
Writing library : Lavc52.36.0
Audio
ID : 1
Format : MPEG Audio
Format version : Version 1
Format profile : Layer 3
Mode : Joint stereo
Mode extension : MS Stereo
Codec ID : 55
Codec ID/Hint : MP3
Duration : 41mn 23s
Bit rate mode : Constant
Bit rate : 192 Kbps
Channel(s) : 2 channels
Sampling rate : 48.0 KHz
Compression mode : Lossy
Stream size : 56.8 MiB (11%)
Alignment : Aligned on interleaves
Interleave, duration : 24 ms (0.60 video frame)
Interleave, preload duration : 504 ms
--
[Профиль] [ЛС]
Кто просматривает тему:

Показать сообщения:    

Текущее время: Сегодня 07:03

Часовой пояс: GMT



Вы не можете начинать темы
Вы не можете отвечать на сообщения
Вы не можете редактировать свои сообщения
Вы не можете удалять свои сообщения
Вы не можете голосовать в опросах
Вы не можете прикреплять файлы к сообщениям
Вы не можете скачивать файлы