Что на самом деле случилось с мисс Джонс / Was geschah wirklich mit Miss Jonas? (1974) BDRip 720p | A

 
Автор Сообщение

Russian Mafia ®

Пол:

Стаж: 2 года 7 месяцев

Сообщений: 4249



Награды: 10 (Подробнее)

Top Releaser 3 (Количество: 1) Mega Seeder 1 (Количество: 1) Mega Seeder 4 (Количество: 1)
Торрент-статистика

Создавать темы 04-Ноя-2016 08:04

[Цитировать]

Информация о фильме
Название: Что на самом деле случилось с мисс Джонс
Оригинальное название: Was geschah wirklich mit Miss Jonas? (Christa, die Beichte eines nymphomanischen Call-Girls)
Год выпуска: 1976
Жанр: Эротика, ужасы, детектив
Режиссер: Эрвин С. Дитрих
В ролях: Криста Фри, Марианн Дюпон, Мишель Жако, Курт Мейнике, Мика Эррас, Роман Хубер, Рита Вальденберг, Питер Капра, Фриц Штайнманн, Жана Клик
О фильме: Фильм является предысторией к действию, разворачивающемуся в продолжении 1976 года - "Бесы в мисс Джонс". Повествует историю мисс Джонс до казни и попадания в ад.

Страна: Швейцария
Студия: Elite Film
Продолжительность: 01:22:39
Перевод: Авторский одноголосый (Андрей Дольский)
Файл
Кодек: MPEG-4 AVC
Качество: BDRip (720p)
Видео: 5580 Кбит/с, 1280x720
Звук: Русский, немецкий (AC3, 2 ch, 640 Кбит/с)
Субтитры: Английские

Инфо-файл

Общее
Уникальный идентификатор : 225186784282734998488379032479964735336 (0xA96965A7E3AF3DA58882B4046F022768)
Полное имя : Was.geschah.wirklich.mit.Miss.Jonas.1974.BDRip.720p-ylnian.mkv
Формат : Matroska
Версия формата : Version 4 / Version 2
Размер файла : 3,96 Гбайт
Продолжительность : 1 ч. 22 м.
Общий поток : 6863 Кбит/сек
Название фильма : Was.geschah.wirklich.mit.Miss.Jonas.1974.BDRip.720p-ylnian
Дата кодирования : UTC 2015-06-14 12:18:03
Программа кодирования : mkvmerge v7.9.0 ('Birds') 64bit
Библиотека кодирования : libebml v1.3.1 + libmatroska v1.4.2
Видео
Идентификатор : 1
Формат : AVC
Формат/Информация : Advanced Video Codec
Профиль формата : High@L4.1
Параметр CABAC формата : Да
Параметр ReFrames формата : 9 кадров
Идентификатор кодека : V_MPEG4/ISO/AVC
Продолжительность : 1 ч. 22 м.
Битрейт : 5580 Кбит/сек
Ширина : 1280 пикселей
Высота : 720 пикселей
Соотношение сторон : 16:9
Режим частоты кадров : Постоянный
Частота кадров : 24,000 кадра/сек
Цветовое пространство : YUV
Субдискретизация насыщенности : 4:2:0
Битовая глубина : 8 бит
Тип развёртки : Прогрессивная
Бит/(Пиксели*Кадры) : 0.252
Размер потока : 3,14 Гбайт (79%)
Заголовок : Was.geschah.wirklich.mit.Miss.Jonas.1974.BDRip.720p
Библиотека кодирования : x264 core 129 r2230 1cffe9f
Настройки программы : cabac=1 / ref=9 / deblock=1:-3:-3 / analyse=0x3:0x133 / me=umh / subme=11 / psy=1 / psy_rd=1.00:0.15 / mixed_ref=1 / me_range=32 / chroma_me=1 / trellis=2 / 8x8dct=1 / cqm=0 / deadzone=21,11 / fast_pskip=1 / chroma_qp_offset=-5 / threads=12 / lookahead_threads=2 / sliced_threads=0 / nr=0 / decimate=1 / interlaced=0 / bluray_compat=0 / constrained_intra=0 / bframes=11 / b_pyramid=2 / b_adapt=2 / b_bias=0 / direct=2 / weightb=1 / open_gop=0 / weightp=2 / keyint=240 / keyint_min=23 / scenecut=40 / intra_refresh=0 / rc_lookahead=60 / rc=2pass / mbtree=1 / bitrate=5580 / ratetol=1.0 / qcomp=0.60 / qpmin=0 / qpmax=69 / qpstep=4 / cplxblur=20.0 / qblur=0.5 / ip_ratio=1.40 / aq=1:1.00
Язык : German
Default : Да
Forced : Да
Аудио #1
Идентификатор : 2
Формат : AC-3
Формат/Информация : Audio Coding 3
Расширение режима : CM (complete main)
Параметр Endianness формата : Big
Идентификатор кодека : A_AC3
Продолжительность : 1 ч. 22 м.
Вид битрейта : Постоянный
Битрейт : 640 Кбит/сек
Каналы : 2 канала
Расположение каналов : Front: L R
Частота : 48,0 КГц
Битовая глубина : 16 бит
Метод сжатия : С потерями
Размер потока : 378 Мбайт (9%)
Заголовок : AVO (Дольский) (AC3 2.0 640 kbps)
Язык : Russian
Default : Да
Forced : Да
Аудио #2
Идентификатор : 3
Формат : AC-3
Формат/Информация : Audio Coding 3
Расширение режима : CM (complete main)
Параметр Endianness формата : Big
Идентификатор кодека : A_AC3
Продолжительность : 1 ч. 22 м.
Вид битрейта : Постоянный
Битрейт : 640 Кбит/сек
Каналы : 2 канала
Расположение каналов : Front: L R
Частота : 48,0 КГц
Битовая глубина : 16 бит
Метод сжатия : С потерями
Размер потока : 378 Мбайт (9%)
Заголовок : AC3 2.0 640 kbps
Язык : German
Default : Нет
Forced : Нет
Текст
Идентификатор : 4
Формат : UTF-8
Идентификатор кодека : S_TEXT/UTF8
Идентификатор кодека/Информация : UTF-8 Plain Text
Язык : English
Default : Нет
Forced : Нет
Меню
00:00:00.000 : de:00:00:00.000
00:06:25.292 : de:00:06:25.292
00:18:21.375 : de:00:18:21.375
00:27:15.750 : de:00:27:15.750
00:34:15.375 : de:00:34:15.375
00:53:09.917 : de:00:53:09.917
01:04:13.458 : de:01:04:13.458
01:09:17.542 : de:01:09:17.542
Релиз от: Оплата перевода и сборка дорожки - ylnian
[Профиль] [ЛС]
Кто просматривает тему:

Показать сообщения:    

Текущее время: Сегодня 07:47

Часовой пояс: GMT



Вы не можете начинать темы
Вы не можете отвечать на сообщения
Вы не можете редактировать свои сообщения
Вы не можете удалять свои сообщения
Вы не можете голосовать в опросах
Вы не можете прикреплять файлы к сообщениям
Вы не можете скачивать файлы