Что, если Санта… снова? / Il mio amico Babbo Natale 2 (Лучо Гаудино / Lucio Gaudino) [2006, Италия, семейный, SATRip] MVO (Комедия ТВ)

 
Автор Сообщение

TorrentFilm ®

Пол:

Стаж: 2 года

Сообщений: 7741



Награды: Нет

Торрент-статистика

Создавать темы 23-Дек-2015 00:30

[Цитировать]

Что, если Санта… снова? / Il mio amico Babbo Natale 2
Страна: Италия
Жанр: семейный
Год выпуска: 2006
Продолжительность: 01:26:35
Перевод: Профессиональный (многоголосый закадровый) Комедия ТВ
Cубтитры: нет
Оригинальная аудиодорожка: нет
Режиссер: Лучо Гаудино / Lucio Gaudino
В ролях: Лино Банфи
Джерри Скотти
Микаела Рамаццотти
Памела Виллорези
Карлотта Маззолени
Серджо Грациани
Фабио Сартор
Джанни Фантони
Карлотта Монтанари
Описание: На севере Милана в супермаркете под Рождество были украдены все игрушки. Надо срочно найти воришку и вернуть десять тысяч игрушек, так как дети остаются без подарков на Рождество. На помощь полиции, Корпорация Санта Клаусов посылает Санту Эдзекьеле, который оказался самым незанятым.
Доп. информация: Рип с канала Комедия ТВ. Периодически всплывает заставка с названием фильма
Сэмпл: http://multi-up.com/1080261
Качество видео: SATRip
Формат видео: AVI
Видео: MPEG4, XviD, 720x400 (16:9), 25.000 fps, 2 063 Kbps (0.287 bit/pixel)
Аудио: AC-3, 48.0 KHz, 2 ch, 192 Kbps, CBR

MediaInfo

Общее
Полное имя : N:\Что, если Санта… снова.avi
Формат : AVI
Формат/Информация : Audio Video Interleave
Размер файла : 1,37 Гбайт
Продолжительность : 1 ч. 26 м.
Общий поток : 2265 Кбит/сек
Название фильма : Что, если Санта… снова? / Il mio amico Babbo Natale 2 (2006)
Программа кодирования : VirtualDubMod 1.5.10.2 (build 2540/release)
Библиотека кодирования : VirtualDubMod build 2540/release
Авторское право : miha2154
Видео
Идентификатор : 0
Формат : MPEG-4 Visual
Профиль формата : Advanced Simple@L5
Параметр BVOP формата : 1
Параметр QPel формата : Нет
Параметр GMC формата : Без точки перехода
Параметр матрицы формата : Выборочная
Идентификатор кодека : XVID
Идентификатор кодека/Подсказка : XviD
Продолжительность : 1 ч. 26 м.
Битрейт : 2063 Кбит/сек
Ширина : 720 пикселей
Высота : 400 пикселей
Соотношение сторон : 16:9
Частота кадров : 25,000 кадров/сек
Цветовое пространство : YUV
Субдискретизация насыщенности : 4:2:0
Битовая глубина : 8 бит
Тип развёртки : Прогрессивная
Метод сжатия : С потерями
Бит/(Пиксели*Кадры) : 0.287
Размер потока : 1,25 Гбайт (91%)
Библиотека кодирования : XviD 65
Аудио
Идентификатор : 1
Формат : AC-3
Формат/Информация : Audio Coding 3
Расширение режима : CM (complete main)
Параметр Endianness формата : Big
Идентификатор кодека : 2000
Продолжительность : 1 ч. 26 м.
Вид битрейта : Постоянный
Битрейт : 192 Кбит/сек
Каналы : 2 канала
Расположение каналов : Front: L R
Частота : 48,0 КГц
Частота кадров : 31,250 кадров/сек (1536 spf)
Метод сжатия : С потерями
Размер потока : 119 Мбайт (8%)
Выравнивание : Разделение по промежуткам
Продолжительность промежутка : 40 мс. (1,00 видеокадр)
Время предзагрузки промежутка : 500 мс.
Заголовок : Профессиональный (многоголосый закадровый) Комедия ТВ

Скриншоты


[Профиль] [ЛС]
Кто просматривает тему:

Показать сообщения:    

Текущее время: Сегодня 00:48

Часовой пояс: GMT



Вы не можете начинать темы
Вы не можете отвечать на сообщения
Вы не можете редактировать свои сообщения
Вы не можете удалять свои сообщения
Вы не можете голосовать в опросах
Вы не можете прикреплять файлы к сообщениям
Вы не можете скачивать файлы