Что гложет Гилберта Грейпа? / What's Eating Gilbert Grape? (1993) BDRip 1080p | P

 
Автор Сообщение

sergej644 ®

Пол:

Стаж: 4 года 11 месяцев

Сообщений: 6046

Откуда: Soviet Union



Награды: Нет

Торрент-статистика

Создавать темы 17-Фев-2015 18:48

[Цитировать]

Информация о фильме
Название: Что гложет Гилберта Грейпа?
Оригинальное название: What's Eating Gilbert Grape?
Год выхода: 1993
Жанр: драма, мелодрама
Режиссер: Лассе Халльстрём
В ролях: Джонни Депп, Леонардо ДиКаприо, Джульетт Льюис, Мэри Стинберген,Дарлен Кэйтс, Лора Хэррингтон,Мэри Кейт Шеллхардт,Кевин Тай,Джон Си Райли,Криспин Гловер
Гилберт Грейп живет в штате Айова, в крошечном городке с населением в тысячу жителей.
У него две сестры, слабоумный брат и толстуха-мать. Гилберт тянет лямку в магазине и крутит роман с замужней дамой. Но все меняется, когда в городок приезжает красивая молодая женщина по имени Беки.


Страна: США
Продолжительность: 01:57:57 ч.
Перевод: Дорожка 1: DVO
Дорожка 2: Профессиональный многоголосый закадровый
Дорожка 3: Оригинал (Английский)
Файл
Кодек: H264
Качество: BDRip 1080p.
Видео: 1920x1080 точек, 23,976 кадр/сек., 0.177 Бит/(Пиксели*Кадры), 8775 Кбит/сек.
Звук: AC3,384,192,448 кбит/сек.,48.0 кГц., стерео, 5:1.
Субтитры: Есть, Русские, Английские (txt)

Скриншоты

Mediainfo

Общее
Уникальный идентификатор : 174851559451145912024296907588411910137 (0x838B2F777CAB02CF9D9A45265EC8E7F9)
Полное имя : D:Торрент файлыWhat's Eating Gilbert Grape.1993.BDRip.1080p.mkv
Формат : Matroska
Версия формата : Version 4 / Version 2
Размер файла : 8,07 Гбайт
Продолжительность : 1 ч. 58 м.
Общий поток : 9789 Кбит/сек
Дата кодирования : UTC 2015-02-11 18:05:37
Программа кодирования : mkvmerge v7.0.0 ('Where We Going') 64bit built on Jun 9 2014 15:16:27
Библиотека кодирования : libebml v1.3.0 + libmatroska v1.4.1
Видео
Идентификатор : 1
Формат : AVC
Формат/Информация : Advanced Video Codec
Профиль формата : High@L4.1
Параметр CABAC формата : Да
Параметр ReFrames формата : 9 кадров
Идентификатор кодека : V_MPEG4/ISO/AVC
Продолжительность : 1 ч. 58 м.
Битрейт : 8775 Кбит/сек
Ширина : 1920 пикселей
Высота : 1080 пикселей
Соотношение сторон : 16:9
Режим частоты кадров : Постоянный
Частота кадров : 23,976 кадра/сек
Цветовое пространство : YUV
Субдискретизация насыщенности : 4:2:0
Битовая глубина : 8 бит
Тип развёртки : Прогрессивная
Бит/(Пиксели*Кадры) : 0.177
Размер потока : 7,07 Гбайт (88%)
Заголовок : What's Eating Gilbert Grape.
Библиотека кодирования : x264 core 116 r2019M 9cc407d
Настройки программы : cabac=1 / ref=10 / deblock=1:-1:-1 / analyse=0x3:0x133 / me=tesa / subme=10 / psy=1 / psy_rd=1.00:0.15 / mixed_ref=1 / me_range=10 / chroma_me=1 / trellis=2 / 8x8dct=1 / cqm=0 / deadzone=6,6 / fast_pskip=0 / chroma_qp_offset=-3 / threads=10 / sliced_threads=0 / nr=15 / decimate=0 / interlaced=0 / bluray_compat=0 / constrained_intra=0 / bframes=10 / b_pyramid=1 / b_adapt=2 / b_bias=0 / direct=3 / weightb=1 / open_gop=0 / weightp=2 / keyint=230 / keyint_min=23 / scenecut=40 / intra_refresh=0 / rc_lookahead=40 / rc=2pass / mbtree=1 / bitrate=8775 / ratetol=1.0 / qcomp=0.80 / qpmin=10 / qpmax=51 / qpstep=4 / cplxblur=20.0 / qblur=0.5 / ip_ratio=1.10 / aq=1:0.50
Язык : English
Default : Да
Forced : Нет
DURATION : 01:57:57.070000000
NUMBER_OF_FRAMES : 169680
NUMBER_OF_BYTES : 7758546278
_STATISTICS_WRITING_APP : mkvmerge v7.0.0 ('Where We Going') 64bit built on Jun 9 2014 15:16:27
_STATISTICS_WRITING_DATE_UTC : 2015-02-11 18:05:37
_STATISTICS_TAGS : BPS DURATION NUMBER_OF_FRAMES NUMBER_OF_BYTES
Аудио #1
Идентификатор : 2
Формат : AC-3
Формат/Информация : Audio Coding 3
Расширение режима : CM (complete main)
Параметр Endianness формата : Big
Идентификатор кодека : A_AC3
Продолжительность : 1 ч. 58 м.
Вид битрейта : Постоянный
Битрейт : 384 Кбит/сек
Каналы : 6 каналов
Расположение каналов : Front: L C R, Side: L R, LFE
Частота : 48,0 КГц
Битовая глубина : 16 бит
Метод сжатия : С потерями
Размер потока : 324 Мбайт (4%)
Заголовок : DVO
Язык : Russian
Default : Да
Forced : Нет
DURATION : 01:57:56.288000000
NUMBER_OF_FRAMES : 221134
NUMBER_OF_BYTES : 339661824
_STATISTICS_WRITING_APP : mkvmerge v7.0.0 ('Where We Going') 64bit built on Jun 9 2014 15:16:27
_STATISTICS_WRITING_DATE_UTC : 2015-02-11 18:05:37
_STATISTICS_TAGS : BPS DURATION NUMBER_OF_FRAMES NUMBER_OF_BYTES
Аудио #2
Идентификатор : 3
Формат : AC-3
Формат/Информация : Audio Coding 3
Расширение режима : CM (complete main)
Параметр Endianness формата : Big
Идентификатор кодека : A_AC3
Продолжительность : 1 ч. 58 м.
Вид битрейта : Постоянный
Битрейт : 192 Кбит/сек
Каналы : 2 канала
Расположение каналов : Front: L R
Частота : 48,0 КГц
Битовая глубина : 16 бит
Метод сжатия : С потерями
Размер потока : 162 Мбайт (2%)
Заголовок : MVO
Язык : Russian
Default : Нет
Forced : Нет
DURATION : 01:58:02.976000000
NUMBER_OF_FRAMES : 221343
NUMBER_OF_BYTES : 169991424
_STATISTICS_WRITING_APP : mkvmerge v7.0.0 ('Where We Going') 64bit built on Jun 9 2014 15:16:27
_STATISTICS_WRITING_DATE_UTC : 2015-02-11 18:05:37
_STATISTICS_TAGS : BPS DURATION NUMBER_OF_FRAMES NUMBER_OF_BYTES
Аудио #3
Идентификатор : 4
Формат : AC-3
Формат/Информация : Audio Coding 3
Расширение режима : CM (complete main)
Параметр Endianness формата : Big
Идентификатор кодека : A_AC3
Продолжительность : 1 ч. 58 м.
Вид битрейта : Постоянный
Битрейт : 448 Кбит/сек
Каналы : 6 каналов
Расположение каналов : Front: L C R, Side: L R, LFE
Частота : 48,0 КГц
Битовая глубина : 16 бит
Метод сжатия : С потерями
Размер потока : 378 Мбайт (5%)
Заголовок : Original
Язык : English
Default : Нет
Forced : Нет
DURATION : 01:57:57.024000000
NUMBER_OF_FRAMES : 221157
NUMBER_OF_BYTES : 396313344
_STATISTICS_WRITING_APP : mkvmerge v7.0.0 ('Where We Going') 64bit built on Jun 9 2014 15:16:27
_STATISTICS_WRITING_DATE_UTC : 2015-02-11 18:05:37
_STATISTICS_TAGS : BPS DURATION NUMBER_OF_FRAMES NUMBER_OF_BYTES
Текст #1
Идентификатор : 5
Формат : UTF-8
Идентификатор кодека : S_TEXT/UTF8
Идентификатор кодека/Информация : UTF-8 Plain Text
Заголовок : Русские
Язык : Russian
Default : Да
Forced : Нет
DURATION : 01:54:07.350000000
NUMBER_OF_FRAMES : 1012
NUMBER_OF_BYTES : 65974
_STATISTICS_WRITING_APP : mkvmerge v7.0.0 ('Where We Going') 64bit built on Jun 9 2014 15:16:27
_STATISTICS_WRITING_DATE_UTC : 2015-02-11 18:05:37
_STATISTICS_TAGS : BPS DURATION NUMBER_OF_FRAMES NUMBER_OF_BYTES
Текст #2
Идентификатор : 6
Формат : UTF-8
Идентификатор кодека : S_TEXT/UTF8
Идентификатор кодека/Информация : UTF-8 Plain Text
Заголовок : Английские
Язык : English
Default : Нет
Forced : Нет
DURATION : 01:54:06.852000000
NUMBER_OF_FRAMES : 1343
NUMBER_OF_BYTES : 46242
_STATISTICS_WRITING_APP : mkvmerge v7.0.0 ('Where We Going') 64bit built on Jun 9 2014 15:16:27
_STATISTICS_WRITING_DATE_UTC : 2015-02-11 18:05:37
_STATISTICS_TAGS : BPS DURATION NUMBER_OF_FRAMES NUMBER_OF_BYTES
[Профиль] [ЛС]
Кто просматривает тему:

Показать сообщения:    

Текущее время: Сегодня 15:45

Часовой пояс: GMT



Вы не можете начинать темы
Вы не можете отвечать на сообщения
Вы не можете редактировать свои сообщения
Вы не можете удалять свои сообщения
Вы не можете голосовать в опросах
Вы не можете прикреплять файлы к сообщениям
Вы не можете скачивать файлы