Что? Где? Когда? - Весенняя серия игр 2015 года - Игра первая (Эфир 21.03.2015) (Борис Крюк) [2015, Интеллектуальная игра, HDTV 1080i]

 
Автор Сообщение

sergej644 ®

Пол:

Стаж: 4 года 11 месяцев

Сообщений: 6046

Откуда: Soviet Union



Награды: Нет

Торрент-статистика

Создавать темы 21-Мар-2015 22:51

[Цитировать]

-Что? Где? Когда? - Весенняя серия игр 2015 года - Игра первая
Год выпуска: 2015
Страна: Россия
Жанр: Интеллектуальная игра
Продолжительность: 00:52:58
Перевод: Не требуется
Русские субтитры: нет
Режиссер: Борис Крюк
Описание:
Популярнейшая командная интеллектуальная игра. В элитарном телевизионном казино игроки-знатоки зарабатывают деньги своим умом, отвечая на вопросы телезрителей. Проводятся летние и зимние игры. В эфире с 1975 года. За четверть века перед глазами телезрителей прошло более 170 игр. Сначала программа обосновалась в баре телецентра в Останкино и провела там 7 лет (с 1975 по 1982 гг.), затем переехала на улицу Герцена, д. 47 (с 1983 по 1986 гг.), потом были три прямых эфира из Болгарии в 1987 г., Центр Международной Торговли на Красной Пресне в 1988-1989 гг., и наконец, Охотничий домик в Нескучном саду, где она обитает по сегодняшний день. Сейчас на адрес Телекомпании "Игра" приходит по 150000-200000 вопросов в месяц. После обработки и проверки остается в среднем 75 вопросов в год. Каждую игру на столе находится 12 вопросов. Всего за 25 лет было задано 1514 вопросов. В играх клуба приняли участие 168 мужчин и 59 женщин. Всего через клуб прошло 227 знатоков, из них 41 иностранных. Лучшие были награждены призом "Хрустальная сова".
Весенняя серия игр 2015 года - Игра первая
В первой игре весенней серии против телезрителей сыграет команда Андрея Козлова. В составе команды: обладатели Хрустальной совы Михал Мун (Санкт-Петербург), Алексей Капустин (Мариуполь), Владимир Антохин (поселок Красково Московской области), а также Елена Александрова (Москва) и Елена Орлова (Москва). Капитан команды – трехкратный обладатель Хрустальной совы, обладатель Бриллиантовой совы, обладатель звания "Лучший капитан Клуба", Магистр игры "Что? Где? Когда?" Андрей Козлов (Москва).

Доп. информация: Релиз -
Рип чистый. Без посторонних надписей. Выкладывается как есть.
Качество: HDTV 1080i
Контейнер: TS
Видео кодек: AVC
Аудио кодек: MP2, AC3
Видео: 1920x1080 (16:9) 25.000 fps ~ 9 977 Kbps, 0.192 bit/pixel
Аудио 1: MPEG Audio 48000Hz stereo 191 Кбит/сек
Аудио 2: AC3, 6 channels, 48000Hz, 384 Кбит/сек

Скриншоты

MI

General
ID                                       : 1 (0x1)
Complete name                            : H:\ВЫКЛАДКА\Март\Что Где Когда - Весенняя серия игр 2015 года - Игра первая (2015, Интеллектуальная игра, HDTV 1080i) (MYDIMKA).ts
Format                                   : MPEG-TS
File size                                : 4.12 GiB
Duration                                 : 52mn 58s
Overall bit rate mode                    : Variable
Overall bit rate                         : 11.1 Mbps
Video
ID                                       : 1902 (0x76E)
Menu ID                                  : 92 (0x5C)
Format                                   : AVC
Format/Info                              : Advanced Video Codec
Format profile                           : High@L4.0
Format settings, CABAC                   : Yes
Format settings, ReFrames                : 3 frames
Format settings, GOP                     : M=4, N=32
Codec ID                                 : 27
Duration                                 : 52mn 58s
Bit rate                                 : 9 977 Kbps
Width                                    : 1 920 pixels
Height                                   : 1 080 pixels
Display aspect ratio                     : 16:9
Frame rate                               : 25.000 fps
Standard                                 : Component
Color space                              : YUV
Chroma subsampling                       : 4:2:0
Bit depth                                : 8 bits
Scan type                                : Interlaced
Scan order                               : Top Field First
Bits/(Pixel*Frame)                       : 0.192
Stream size                              : 3.69 GiB (90%)
Color primaries                          : BT.709
Transfer characteristics                 : BT.709
Matrix coefficients                      : BT.709
Audio #1
ID                                       : 2902 (0xB56)
Menu ID                                  : 92 (0x5C)
Format                                   : AC-3
Format/Info                              : Audio Coding 3
Mode extension                           : CM (complete main)
Format settings, Endianness              : Big
Codec ID                                 : 6
Duration                                 : 52mn 58s
Bit rate mode                            : Constant
Bit rate                                 : 384 Kbps
Channel(s)                               : 6 channels
Channel positions                        : Front: L C R, Side: L R, LFE
Sampling rate                            : 48.0 KHz
Bit depth                                : 16 bits
Compression mode                         : Lossy
Delay relative to video                  : -40ms
Stream size                              : 145 MiB (3%)
Language                                 : Russian
Audio #2
ID                                       : 2903 (0xB57)
Menu ID                                  : 92 (0x5C)
Format                                   : MPEG Audio
Format version                           : Version 1
Format profile                           : Layer 2
Codec ID                                 : 3
Duration                                 : 52mn 58s
Bit rate mode                            : Constant
Bit rate                                 : 224 Kbps
Channel(s)                               : 2 channels
Sampling rate                            : 48.0 KHz
Compression mode                         : Lossy
Delay relative to video                  : -40ms
Stream size                              : 84.9 MiB (2%)
Language                                 : Russian
Text
ID                                       : 2904 (0xB58)-888
Menu ID                                  : 92 (0x5C)
Format                                   : Teletext Subtitle
Language                                 : Russian
Menu
ID                                       : 902 (0x386)
Menu ID                                  : 92 (0x5C)
Duration                                 : 52mn 58s
List                                     : 1902 (0x76E) (AVC) / 2902 (0xB56) (AC-3, Russian) / 2903 (0xB57) (MPEG Audio, Russian) / 2904 (0xB58) ()
Language                                 :  / Russian / Russian
[Профиль] [ЛС]
Показать сообщения:    

Текущее время: Сегодня 17:42

Часовой пояс: GMT



Вы не можете начинать темы
Вы не можете отвечать на сообщения
Вы не можете редактировать свои сообщения
Вы не можете удалять свои сообщения
Вы не можете голосовать в опросах
Вы не можете прикреплять файлы к сообщениям
Вы не можете скачивать файлы