Чтец / The Reader (Стивен Долдри /Stephen Daldry) [2008, США, Драма, мелодрама, BDRip] MVO (R5) + MVO (Киномания)

 
Автор Сообщение

TorrentFilm ®

Пол:

Стаж: 2 года

Сообщений: 7741



Награды: Нет

Торрент-статистика

Создавать темы 06-Фев-2016 00:08

[Цитировать]

Чтец / The Reader
«А ты умеешь хранить тайны?»
- Год выпуска: 2008
Выпущено: США, Германия / The Weinstein Company LLC
Жанр: драма, мелодрама
Продолжительность: 02:03:58
Перевод (1): Профессиональный (многоголосый закадровый) R5 / Лицензия
Перевод (2):Профессиональный (многоголосый закадровый) Киномания
Cубтитры: нет-Режиссер:
Стивен Долдри /Stephen Daldry-В ролях:
Рэйф Файнс (Michael Berg), Кейт Уинслет (Hanna Schmitz), Давид Кросс (Young Michael Berg), Жанетт Хайн (Brigitte), Сюзанна Лотар (Carla Berg), Алисса Вильм (Emily Berg), Флориан Бартоломай (Thomas Berg), Фредерике Бехт (Angela Berg), Маттиас Хабих (Peter Berg), Фридер Венус (Doctor)-Описание:
Майкл Берг, 52-летний закрытый в себе адвокат, постоянно думает о своём прошлом. Уже почти 40 лет его гложет мысль о том, что он мог кардинально изменить свою судьбу, и не только свою. Стоит ли думать о прошлом, если оно — уже история? Или всё ещё продолжается?-Релиз групп | | IMDB | КиноПоиск | Сэмпл |-Качество: BDRip [BDRemux | 1080p | HDCLUB]
Формат: AVI
Видео: 688x368 (1.87:1), 23.976 fps, XviD build 73 ~1291 kbps avg, 0.21 bit/pixel
Аудио #1: 48 kHz, AC3 Dolby Digital, 2/0 (L,R) ch, ~192.00 kbps avg (MVO) (R5 / Лицензия)
Аудио #2: 48 kHz, AC3 Dolby Digital, 2/0 (L,R) ch, ~192.00 kbps avg (MVO) (Киномания)
-

Скриншоты

MediaInfo

Общее
Полное имя                               : D:\Chtec_2008_BDRip_by_Dalemake.avi
Формат                                   : AVI
Формат/Информация                        : Audio Video Interleave
Размер файла                             : 1,46 Гбайт
Продолжительность                        : 2 ч. 3 м.
Общий поток                              : 1691 Кбит/сек
Программа кодирования                    : VirtualDubMod 1.5.10.3 | www.virtualdub-fr.org || (build 2550/release)
Библиотека кодирования                   : VirtualDubMod build 2550/release
Видео
Идентификатор                            : 0
Формат                                   : MPEG-4 Visual
Профиль формата                          : Advanced Simple@L5
Параметр BVOP формата                    : 1
Параметр QPel формата                    : Нет
Параметр GMC формата                     : Без точки перехода
Параметр матрицы формата                 : Выборочная
Идентификатор кодека                     : XVID
Идентификатор кодека/Подсказка           : XviD
Продолжительность                        : 2 ч. 3 м.
Битрейт                                  : 1292 Кбит/сек
Ширина                                   : 688 пикселей
Высота                                   : 368 пикселей
Соотношение сторон                       : 1,85:1
Частота кадров                           : 23,976 кадра/сек
Цветовое пространство                    : YUV
Субдискретизация насыщенности            : 4:2:0
Битовая глубина                          : 8 бит
Тип развёртки                            : Прогрессивная
Метод сжатия                             : С потерями
Бит/(Пиксели*Кадры)                      : 0.213
Размер потока                            : 1,12 Гбайт (76%)
Библиотека кодирования                   : XviD 73
Аудио #1
Идентификатор                            : 1
Формат                                   : AC-3
Формат/Информация                        : Audio Coding 3
Расширение режима                        : CM (complete main)
Параметр Endianness формата              : Big
Идентификатор кодека                     : 2000
Продолжительность                        : 2 ч. 3 м.
Вид битрейта                             : Постоянный
Битрейт                                  : 192 Кбит/сек
Каналы                                   : 2 канала
Расположение каналов                     : Front: L R
Частота                                  : 48,0 КГц
Битовая глубина                          : 16 бит
Метод сжатия                             : С потерями
Размер потока                            : 170 Мбайт (11%)
Выравнивание                             : Разделение по промежуткам
Продолжительность промежутка             : 42  мс. (1,00 видеокадр)
Время предзагрузки промежутка            : 500  мс.
Аудио #2
Идентификатор                            : 2
Формат                                   : AC-3
Формат/Информация                        : Audio Coding 3
Расширение режима                        : CM (complete main)
Параметр Endianness формата              : Big
Идентификатор кодека                     : 2000
Продолжительность                        : 2 ч. 3 м.
Вид битрейта                             : Постоянный
Битрейт                                  : 192 Кбит/сек
Каналы                                   : 2 канала
Расположение каналов                     : Front: L R
Частота                                  : 48,0 КГц
Битовая глубина                          : 16 бит
Метод сжатия                             : С потерями
Размер потока                            : 170 Мбайт (11%)
Выравнивание                             : Разделение по промежуткам
Продолжительность промежутка             : 42  мс. (1,00 видеокадр)
Время предзагрузки промежутка            : 500  мс.
-
[Профиль] [ЛС]

Создавать темы 12-Июн-2016 08:50 (спустя 4 месяца 6 дней)

Топик был перенесен из форума Фильмы 2011 года в форум Фильмы 2006-2008 года
Russian Mafia
 
Кто просматривает тему:

Форум Тема Автор Размер
Фильмы (HD Rips | 720p, 1080p) Чтец / The Reader (2008) BDRip 1080p by msltel | P, A sergej644 15.26 GB
Показать сообщения:    

Текущее время: Сегодня 14:54

Часовой пояс: GMT



Вы не можете начинать темы
Вы не можете отвечать на сообщения
Вы не можете редактировать свои сообщения
Вы не можете удалять свои сообщения
Вы не можете голосовать в опросах
Вы не можете прикреплять файлы к сообщениям
Вы не можете скачивать файлы