Чтец / The Reader (2008) BDRip 1080p by msltel | P, A

 
Автор Сообщение

sergej644 ®

Пол:

Стаж: 4 года 11 месяцев

Сообщений: 6043

Откуда: Soviet Union



Награды: Нет

Торрент-статистика

Создавать темы 02-Дек-2014 09:15

[Цитировать]

Год выпуска: 2008
Страна: США, Германия
Жанр: драма, мелодрама
Продолжительность: 02:03:58
Перевод: профессиональный многоголосый, авторский
Субтитры: русские, английские
Режиссёр: Стивен Долдри
В ролях: Рэйф Файнс, Кейт Уинслет, Дэвид Кросс (II), Жанетт Хайн, Сюзанна Лотар, Алисса Вильм, Флориан Бартоломей, Фредерике Бехт, Маттиас Хабих, Фридер Венус, Мэри-Энн Флигель, Хендрик Арнст, Райнер Селлиен, Торстен Михаэлис, Мориц Гроув, Йоахим Томашевски, Барбара Филипп, Ганс Хохлбейн, Юрген Таррач, Керстен Блок, Вьессна Феркич, Ванесса Бертольд, Бенджамин Тринкс, Фриц Рот, Ханна Херцшпрунг, Жаклин Макколей, Фолькер Бруч, Бруно Ганц, Каролине Херфурт, Макс Мауфф
Описание: Майкл Берг, 52-летний закрытый в себе адвокат, постоянно думает о своём прошлом. Уже почти 40 лет его гложет мысль о том, что он мог кардинально изменить свою судьбу. И не только свою. Стоит ли думать о прошлом, если это уже история. Или она ещё продолжается?.. Фильм снят по мотивам романа немецкого профессора, юриста и писателя Бернхарда Шлинка «Чтец» (Der Vorleser, 1995).

Качество: BDRip 1080p
Формат: MKV
Видео кодек: H.264
Аудио кодек: AC3, DTS
Видео: 1920x1038, 14.2 Mbps, 23.976 кадра/с, 0.298 bpp
Аудио 1: русский, AC3, 448 kbps, 6 ch, 48 kHz [профессиональный многоголосый, R5]
Аудио 2: русский, AC3, 448 kbps, 6 ch, 48 kHz [профессиональный многоголосый, Киномания]
Аудио 3: русский, DTS, 1509 kbps, 6 ch, 48 kHz [авторский, Юрий Сербин]
Аудио 4: английский, AC3, 640 kbps, 6 ch, 48 kHz [оригинал]
Субтитры 1: русские (Юрий Сербин)
Субтитры 2: русские
Субтитры 3: английские
Субтитры 4: английские (для слабослышащих)
Имеются неименованные главы/чаптеры.

Награды

Оскар, 2009 год
Победитель (1):
Лучшая женская роль (Кейт Уинслет)
Номинации (4):
Лучший фильм
Лучший режиссер (Стивен Долдри)
Лучший адаптированный сценарий
Лучшая работа оператора
Золотой глобус, 2009 год
Победитель (1):
Лучшая женская роль второго плана (Кейт Уинслет)
Номинации (3):
Лучший фильм (драма)
Лучший режиссер (Стивен Долдри)
Лучший сценарий
Премия канала «MTV», 2009 год
Номинации (1):
Лучшая женская роль (Кейт Уинслет)
Британская академия, 2009 год
Победитель (1):
Лучшая женская роль (Кейт Уинслет)
Номинации (4):
Лучший фильм
Лучший режиссер (Стивен Долдри)
Лучший адаптированный сценарий
Лучшая работа оператора
Европейская киноакадемия, 2009 год
Победитель (1):
Лучшая женская роль (Кейт Уинслет)
Номинации (2):
Лучший фильм
Лучшая мужская роль (Давид Кросс)
Премия Гильдии актеров, 2009 год
Победитель (1):
Лучшая женская роль второго плана (Кейт Уинслет)

MediaInfo

Общее
Уникальный идентификатор : 190928197330075547708486172525666255030 (0x8FA36EE93F913C0E858751802F5440B6)
Полное имя : D:VideoChtec.2008.BDRip.1080p.mkv
Формат : Matroska
Версия формата : Version 4 / Version 2
Размер файла : 15,3 Гбайт
Продолжительность : 2 ч. 3 м.
Общий поток : 17,6 Мбит/сек
Дата кодирования : UTC 2014-12-02 04:05:36
Программа кодирования : mkvmerge v7.3.0 ('Nouages') 64bit built on Oct 22 2014 18:53:34
Библиотека кодирования : libebml v1.3.0 + libmatroska v1.4.1
_STATISTICS_WRITING_APP : mkvmerge v7.3.0 ('Nouages') 64bit built on Oct 22 2014 18:53:34
_STATISTICS_WRITING_DATE_UTC : 2014-12-02 04:05:36
_STATISTICS_TAGS : BPS DURATION NUMBER_OF_FRAMES NUMBER_OF_BYTES
DURATION : 02:03:58.315000000
NUMBER_OF_FRAMES : 697342
NUMBER_OF_BYTES : 1403052344
Видео
Идентификатор : 1
Формат : AVC
Формат/Информация : Advanced Video Codec
Профиль формата : High@L4.1
Параметр CABAC формата : Да
Параметр ReFrames формата : 4 кадра
Идентификатор кодека : V_MPEG4/ISO/AVC
Продолжительность : 2 ч. 3 м.
Битрейт : 14,2 Мбит/сек
Ширина : 1920 пикселей
Высота : 1038 пикселей
Соотношение сторон : 1,85:1
Режим частоты кадров : Постоянный
Частота кадров : 23,976 кадра/сек
Цветовое пространство : YUV
Субдискретизация насыщенности : 4:2:0
Битовая глубина : 8 бит
Тип развёртки : Прогрессивная
Бит/(Пиксели*Кадры) : 0.298
Размер потока : 12,3 Гбайт (81%)
Заголовок : BDRip -- STarankov
Библиотека кодирования : x264 core 142 r2431 ac76440
Настройки программы : cabac=1 / ref=4 / deblock=1:-1:-1 / analyse=0x3:0x113 / me=umh / subme=10 / psy=1 / psy_rd=1.00:0.15 / mixed_ref=1 / me_range=32 / chroma_me=1 / trellis=2 / 8x8dct=1 / cqm=0 / deadzone=21,11 / fast_pskip=1 / chroma_qp_offset=-3 / threads=6 / lookahead_threads=1 / sliced_threads=0 / nr=0 / decimate=1 / interlaced=0 / bluray_compat=0 / constrained_intra=0 / bframes=8 / b_pyramid=2 / b_adapt=2 / b_bias=0 / direct=3 / weightb=1 / open_gop=0 / weightp=2 / keyint=230 / keyint_min=23 / scenecut=40 / intra_refresh=0 / rc_lookahead=40 / rc=crf / mbtree=0 / crf=17.4 / qcomp=0.60 / qpmin=0 / qpmax=69 / qpstep=4 / vbv_maxrate=50000 / vbv_bufsize=62500 / crf_max=0.0 / nal_hrd=none / filler=0 / ip_ratio=1.40 / pb_ratio=1.30 / aq=1:1.00
Язык : English
Default : Да
Forced : Нет
DURATION : 02:03:58.306000000
NUMBER_OF_FRAMES : 178341
NUMBER_OF_BYTES : 13555047590
_STATISTICS_WRITING_APP : mkvmerge v7.3.0 ('Nouages') 64bit built on Oct 22 2014 18:53:34
_STATISTICS_WRITING_DATE_UTC : 2014-12-02 04:05:36
_STATISTICS_TAGS : BPS DURATION NUMBER_OF_FRAMES NUMBER_OF_BYTES
Аудио #1
Идентификатор : 2
Формат : AC-3
Формат/Информация : Audio Coding 3
Расширение режима : CM (complete main)
Параметр Endianness формата : Big
Идентификатор кодека : A_AC3
Продолжительность : 2 ч. 3 м.
Вид битрейта : Постоянный
Битрейт : 448 Кбит/сек
Каналы : 6 каналов
Расположение каналов : Front: L C R, Side: L R, LFE
Частота : 48,0 КГц
Битовая глубина : 16 бит
Метод сжатия : С потерями
Размер потока : 397 Мбайт (3%)
Заголовок : MVO (R5)
Язык : Russian
Default : Да
Forced : Нет
Аудио #2
Идентификатор : 3
Формат : AC-3
Формат/Информация : Audio Coding 3
Расширение режима : CM (complete main)
Параметр Endianness формата : Big
Идентификатор кодека : A_AC3
Продолжительность : 2 ч. 3 м.
Вид битрейта : Постоянный
Битрейт : 448 Кбит/сек
Каналы : 6 каналов
Расположение каналов : Front: L C R, Side: L R, LFE
Частота : 48,0 КГц
Битовая глубина : 16 бит
Метод сжатия : С потерями
Размер потока : 397 Мбайт (3%)
Заголовок : MVO (Киномания)
Язык : Russian
Default : Нет
Forced : Нет
Аудио #3
Идентификатор : 4
Формат : DTS
Формат/Информация : Digital Theater Systems
Режим : 16
Параметр Endianness формата : Big
Идентификатор кодека : A_DTS
Продолжительность : 2 ч. 3 м.
Вид битрейта : Постоянный
Битрейт : 1509 Кбит/сек
Каналы : 6 каналов
Расположение каналов : Front: L C R, Side: L R, LFE
Частота : 48,0 КГц
Битовая глубина : 24 бит
Метод сжатия : С потерями
Размер потока : 1,31 Гбайт (9%)
Заголовок : AVO (Юрий Сербин)
Язык : Russian
Default : Нет
Forced : Нет
Аудио #4
Идентификатор : 5
Формат : AC-3
Формат/Информация : Audio Coding 3
Расширение режима : CM (complete main)
Параметр Endianness формата : Big
Идентификатор кодека : A_AC3
Продолжительность : 2 ч. 3 м.
Вид битрейта : Постоянный
Битрейт : 640 Кбит/сек
Каналы : 6 каналов
Расположение каналов : Front: L C R, Side: L R, LFE
Частота : 48,0 КГц
Битовая глубина : 16 бит
Метод сжатия : С потерями
Размер потока : 568 Мбайт (4%)
Заголовок : Original
Язык : English
Default : Нет
Forced : Нет
Текст #1
Идентификатор : 6
Формат : UTF-8
Идентификатор кодека : S_TEXT/UTF8
Идентификатор кодека/Информация : UTF-8 Plain Text
Заголовок : русский (Юрий Сербин)
Язык : Russian
Default : Нет
Forced : Нет
Текст #2
Идентификатор : 7
Формат : UTF-8
Идентификатор кодека : S_TEXT/UTF8
Идентификатор кодека/Информация : UTF-8 Plain Text
Заголовок : русский
Язык : Russian
Default : Нет
Forced : Нет
Текст #3
Идентификатор : 8
Формат : UTF-8
Идентификатор кодека : S_TEXT/UTF8
Идентификатор кодека/Информация : UTF-8 Plain Text
Заголовок : английский
Default : Нет
Forced : Нет
Текст #4
Идентификатор : 9
Формат : UTF-8
Идентификатор кодека : S_TEXT/UTF8
Идентификатор кодека/Информация : UTF-8 Plain Text
Заголовок : английский (для слабослышащих)
Default : Нет
Forced : Нет
Меню
00:00:00.000 : :Chapter 01
00:02:58.970 : :Chapter 02
00:06:06.282 : :Chapter 03
00:09:58.972 : :Chapter 04
00:17:16.368 : :Chapter 05
00:22:56.541 : :Chapter 06
00:27:23.266 : :Chapter 07
00:30:35.250 : :Chapter 08
00:35:37.009 : :Chapter 09
00:47:04.446 : :Chapter 10
00:48:43.085 : :Chapter 11
00:50:39.077 : :Chapter 12
00:55:55.268 : :Chapter 13
01:04:00.002 : :Chapter 14
01:06:11.509 : :Chapter 15
01:09:10.104 : :Chapter 16
01:13:00.584 : :Chapter 17
01:19:13.497 : :Chapter 18
01:23:58.658 : :Chapter 19
01:28:55.955 : :Chapter 20
01:33:52.417 : :Chapter 21
01:41:26.497 : :Chapter 22
01:45:20.188 : :Chapter 23
01:55:36.596 : :Chapter 24
02:03:58.055 : :Chapter 25

Скриншоты (увеличить)

[Профиль] [ЛС]
Показать сообщения:    

Текущее время: Сегодня 10:52

Часовой пояс: GMT



Вы не можете начинать темы
Вы не можете отвечать на сообщения
Вы не можете редактировать свои сообщения
Вы не можете удалять свои сообщения
Вы не можете голосовать в опросах
Вы не можете прикреплять файлы к сообщениям
Вы не можете скачивать файлы