ЧОП [S02] (2016) WEB-DLRip

 
Автор Сообщение

достали все ®

Пол:

Стаж: 1 год 8 месяцев

Сообщений: 6571



Награды: 12 (Подробнее)

Mega Seeder 4 (Количество: 1) Top Releaser 2 (Количество: 1) Mega Releaser 2 (Количество: 1)
Торрент-статистика

Создавать темы 05-Июл-2016 21:48

[Цитировать]

Информация о фильме
Оригинальное название: ЧОП
Год выхода: 2016
Жанр: Ситком, комедия
Режиссёр: Михаил Соловьёв
В ролях: Сергей Стёпин, Геннадий Масленников, Сергей Терещенко, Сэм Никель, Денис Бузин, Яна Кошкина, Дмитрий Белоцерковский, Али Алиев, Ислам Мамергов, Виталий Гумеров
Описание:
Во втором сезоне комедийного сериала «ЧОП» самые смешные охранники страны продолжают блюсти порядок в бизнес-центре «Соловей», едят, а также, наконец, находят любовь. И она влияет на их работу так, что безопасность оказывается в опасности! Лев Борисович борется за сердце хозяйки бизнес-центра Елены Сергеевны и помогает центру в трудное время: сдает его в аренду знакомым индусам — лишь бы угодить любимой. Андрей устраивает Снежану на работу в ЧОП «Кедр» и даже отдает ей часть своей зарплаты — только бы быть к ней поближе. Федя, никогда не интересовавшийся современными технологиями,находит любовь в лице айтишницы Маши. Даже Толя, которого жена выгнала из дома, оказывается втянут в любовный треугольник. Герои сериала продолжают впутываться в самые невероятные истории: их ждёт падение лифта, похищение, поиски фиолетовой шубы, арест, похороны собаки, охота на крысу - и многое другое.

Страна: Россия, Гуд Стори Медиа
Продолжительность: ~ 00:24:00 / Серия
Перевод: Не требуется
Файл
Кодек: XviD
Качество: WEB-DLRip [Исходник: WEB-DL 720p]
Видео: XviD, 704x400 (16:9), ~ 1800 Кбит/с, 25 кадр/с
Аудио: Русский, MP3, 48000 Гц, 128 Кбит/с, 2 канала (Стерео)

MediaInfo

General
Complete name : CHOP.s02.e01.2016.WEB-DLRip.avi
Format : AVI
Format/Info : Audio Video Interleave
File size : 350 MiB
Duration : 24mn 3s
Overall bit rate : 2 036 Kbps
Writing application : VirtualDubMod 1.5.10.3 | www.virtualdub-fr.org || (build 2550/release)
Writing library : VirtualDubMod build 2550/release
Video
ID : 0
Format : MPEG-4 Visual
Format profile : Advanced Simple@L5
Format settings, BVOP : 1
Format settings, QPel : No
Format settings, GMC : No warppoints
Format settings, Matrix : Custom
Codec ID : XVID
Codec ID/Hint : XviD
Duration : 24mn 3s
Bit rate : 1 899 Kbps
Width : 704 pixels
Height : 400 pixels
Display aspect ratio : 16:9
Frame rate : 25.000 fps
Color space : YUV
Chroma subsampling : 4:2:0
Bit depth : 8 bits
Scan type : Progressive
Compression mode : Lossy
Bits/(Pixel*Frame) : 0.270
Stream size : 327 MiB (93%)
Writing library : XviD 73
Audio
ID : 1
Format : MPEG Audio
Format version : Version 1
Format profile : Layer 3
Codec ID : 55
Codec ID/Hint : MP3
Duration : 24mn 3s
Bit rate mode : Constant
Bit rate : 128 Kbps
Channel(s) : 2 channels
Sampling rate : 48.0 KHz
Compression mode : Lossy
Stream size : 22.0 MiB (6%)
Alignment : Aligned on interleaves
Interleave, duration : 40 ms (1.00 video frame)
Interleave, preload duration : 504 ms
Writing library : LAME3.99r
Encoding settings : -m s -V 4 -q 0 -lowpass 17 -b 128

Скриншоты


Автор рипа - ivandubskoj
[Профиль] [ЛС]
Показать сообщения:    

Текущее время: Сегодня 20:33

Часовой пояс: GMT



Вы не можете начинать темы
Вы не можете отвечать на сообщения
Вы не можете редактировать свои сообщения
Вы не можете удалять свои сообщения
Вы не можете голосовать в опросах
Вы не можете прикреплять файлы к сообщениям
Вы не можете скачивать файлы