Члены королевской семьи / The Royals [S02] (2015) WEB-DL 1080p | NiKiStudio

 
Автор Сообщение

достали все ®

Пол:

Стаж: 1 год 8 месяцев

Сообщений: 6570



Награды: 12 (Подробнее)

Mega Seeder 2 (Количество: 1) Mega Releaser 1 (Количество: 1) Mega Seeder 5 (Количество: 1)
Торрент-статистика

Создавать темы 21-Апр-2016 06:28

[Цитировать]

Название: Члены королевской семьи
Оригинальное название: The Royals
Год выхода: 2015
Жанр: драма
Режиссер:
Марк Шван
В ролях:
Стеси Грин, Ричард Бэнкс, Элизабет Хёрли, Мария Кука, Ник Лэвэлл, Уильям Моусли, Александра Парк, Винсент Риган
О фильме:
Полюбившаяся многим история вымышленного английского королевского семейства во втором сезоне заиграла новыми красками буйной фантазии её создателей. И чего только в светской жизни членов монаршей семьи не случается! Страсти, капризы и всяческие прихоти погружают зрителя в такой заманчивый, такой иной в сравнении с нашей повседневностью мир!
Страна: США
Продолжительность: ~00:45:00
Перевод: Любительский (многоголосый закадровый) NiKiStudio
Субтитры: Отсутствуют

Файл
Кодек: MKV
Качество: WEB-DL 1080p
Видео: 1920x1080 (16:9), 23.976 fps, MPEG-4 AVC ~5598 kbps avg, 0.098 bit/pixel
Аудио Rus: AC3 384 Кбит/сек 6 каналов 48,0 КГц | NikiStudio Records
Аудио Eng: AC3 384 Кбит/сек 6 каналов 48,0 КГц | original

MediaInfo

Формат : Matroska
Версия формата : Version 2
Размер файла : 1,70 Гбайт
Продолжительность : 43 м.
Общий поток : 5598 Кбит/сек
Дата кодирования : UTC 2015-11-20 23:57:12
Программа кодирования : mkvmerge v7.8.0 ('River Man') 32bit built on Apr 3 2015 12:11:22
Библиотека кодирования : libebml v1.3.1 + libmatroska v1.4.2
Видео
Идентификатор : 1
Формат : AVC
Формат/Информация : Advanced Video Codec
Профиль формата : High@L4
Параметр CABAC формата : Да
Параметр ReFrames формата : 4 кадра
Идентификатор кодека : V_MPEG4/ISO/AVC
Продолжительность : 43 м.
Битрейт : 4864 Кбит/сек
Ширина : 1920 пикселей
Высота : 1080 пикселей
Соотношение сторон : 16:9
Режим частоты кадров : Постоянный
Частота кадров : 23,976 кадра/сек
Цветовое пространство : YUV
Субдискретизация насыщенности : 4:2:0
Битовая глубина : 8 бит
Тип развёртки : Прогрессивная
Бит/(Пиксели*Кадры) : 0.098
Размер потока : 1,44 Гбайт (84%)
Библиотека кодирования : x264 core 146 r2538 121396c
Настройки программы : cabac=1 / ref=3 / deblock=1:0:0 / analyse=0x3:0x113 / me=hex / subme=7 / psy=1 / psy_rd=1.00:0.00 / mixed_ref=1 / me_range=16 / chroma_me=1 / trellis=1 / 8x8dct=1 / cqm=0 / deadzone=21,11 / fast_pskip=1 / chroma_qp_offset=-2 / threads=3 / lookahead_threads=1 / sliced_threads=0 / nr=0 / decimate=1 / interlaced=0 / bluray_compat=0 / constrained_intra=0 / bframes=3 / b_pyramid=2 / b_adapt=1 / b_bias=0 / direct=1 / weightb=1 / open_gop=0 / weightp=2 / keyint=250 / keyint_min=23 / scenecut=40 / intra_refresh=0 / rc_lookahead=40 / rc=abr / mbtree=1 / bitrate=4864 / ratetol=1.0 / qcomp=0.60 / qpmin=0 / qpmax=69 / qpstep=4 / ip_ratio=1.40 / aq=1:1.00
Default : Да
Forced : Нет
Аудио #1
Идентификатор : 2
Формат : AC-3
Формат/Информация : Audio Coding 3
Расширение режима : CM (complete main)
Параметр Endianness формата : Big
Идентификатор кодека : A_AC3
Продолжительность : 43 м.
Вид битрейта : Постоянный
Битрейт : 384 Кбит/сек
Каналы : 6 каналов
Расположение каналов : Front: L C R, Side: L R, LFE
Частота : 48,0 КГц
Метод сжатия : С потерями
Размер потока : 120 Мбайт (7%)
Default : Да
Forced : Нет
Аудио #2
Идентификатор : 3
Формат : AC-3
Формат/Информация : Audio Coding 3
Расширение режима : CM (complete main)
Параметр Endianness формата : Big
Идентификатор кодека : A_AC3
Продолжительность : 43 м.
Вид битрейта : Постоянный
Битрейт : 384 Кбит/сек
Каналы : 6 каналов
Расположение каналов : Front: L C R, Side: L R, LFE
Частота : 48,0 КГц
Метод сжатия : С потерями
Размер потока : 120 Мбайт (7%)
Default : Нет
Forced : Нет

Скриншоты

[Профиль] [ЛС]
Кто просматривает тему:

Форум Тема Автор Размер
Зарубежные сериалы Члены королевской семьи / The Royals [S01] (2015) WEB-DLRip | NiKiStudio достали все 6.48 GB
Показать сообщения:    

Текущее время: Сегодня 12:45

Часовой пояс: GMT



Вы не можете начинать темы
Вы не можете отвечать на сообщения
Вы не можете редактировать свои сообщения
Вы не можете удалять свои сообщения
Вы не можете голосовать в опросах
Вы не можете прикреплять файлы к сообщениям
Вы не можете скачивать файлы