Чкалов / Серии: 1-8 из 8 (Игорь Зайцев) [2012, Биография, исторический, драма, WEB-DL 1080p]

 
Автор Сообщение

sergej644 ®

Пол:

Стаж: 4 года 11 месяцев

Сообщений: 6040

Откуда: Soviet Union



Награды: Нет

Торрент-статистика

Создавать темы 08-Окт-2014 18:49

[Цитировать]

ЧкаловГод выпуска: 2012
Производство: Соло Фильм
Жанр: Биография, исторический, драма
Продолжительность: ~ 00:51:00
Режиссёр: Игорь Зайцев
В ролях: Евгений Дятлов, Андрей Мерзликин, Светлана Фролова, Мария Гузеева, Олег Лопухов, Александр Коршунов, Максим Литовченко, Владимир Зайцев, Семён Стругачев, Анастасия Макеева
Описание:
Рассказ о неизвестных страницах из жизни комбрига Валерия Чкалова, чья биография полна тайн, долгие годы тщательно скрывавшихся от глаз и ушей народа, и одновременно — история становления авиации в нашей стране. Начинается повествование с периода учебы Валерия Павловича, а заканчивается его легендарным беспосадочным перелетом из СССР в США в 1937 году.

Описание серий

1-я серия
СССР, 1924 год. Два друга-летчика Валерий Чкалов и Александр Анисимов – лучшие курсанты Серпуховской летной школы. Как талантливые и перспективные, они получают распределение в Ленинградскую Краснознамeнную истребительную эскадрилью. Молодым хулиганам нет равных в небе, однако их дружбу на прочность испытывает знакомство с очаровательной пианисткой Ольгой Ореховой…
2-я серия
Чтобы поразить любимую Олю в день еe рождения – Чкалов пролетает под Троицким мостом. Соперничество за сердце Ольги грозит Чкалову и Анисимову серьезными дисциплинарными взысканиями. Девушка наконец-то делает выбор в пользу Валеры. Однако Чкаловым недолго приходится наслаждаться тихим семейным счастьем – Валерия переводят в Брянскую авиационную эскадрилью.
3-я серия
После произошедшего, приговором военного трибунала Чкалов приговорен к одному году лишения свободы и уволен из Красной Армии. Однако отбывать наказание летчику приходится недолго: благодаря ходатайству своих заступников, менее чем через месяц наказание заменяют на условное. После освобождения из Брянской тюрьмы Валерий знакомится с роковой красоткой Марго…
4-я серия
Черная полоса Чкалова заканчивается: по высокой протекции он восстанавливается в воинском звании и направляется на работу в сверхсекретный Московский научно-исследовательский институт ВВС. Судьба снова сводит Валерия со старым другом Анисимовым. Под руководством опального авиаконструктора Поликарпова Чкалов и Анисимов приступают к испытательным полeтам…
5-я серия
Валерия увольняют из Института и снова исключают из рядов Красной Армии. Чкалов полностью переходит в распоряжение Поликарпова. Во время испытания истребителя И-16 возникает внештатная ситуация, однако асу Чкалову удается не допустить трагедию...
6-я серия
После неоправданного геройства во время показательного полета, Чкалова представляют лично Сталину. В беседе Верховный Главнокомандующий ставит жизнь испытателя выше опытного образца самолета. Валерий Павлович становится "звездой", получает новую квартиру. Но самый главный подарок преподносит Ольга – у летчика рождается дочь.
7-я серия
Чкалов, Байдуков и Беляков усиленно готовятся к полету по "Сталинскому маршруту" Москва - Петропавловск-Камчатский. Перелeт экипажа Чкалова из Москвы на Дальний Восток стартует 20 июля 1936 года. Все 56 часов – от начала полета до посадки на песчаной косе острова Удд в Охотском море - Ольга не находит себе места от волнения…
8-я серия
Обласканный властью Чкалов рвeтся в Испанию сражаться в Гражданской войне против франкистов, но Сталин не желает отпускать своего любимого лeтчика. Валерий Павлович мучается без дела, его тяготит положение придворного. Брак летчика находится на грани распада. Грандиозный перелeт через Северный полюс становится для Чкалова последним шансом вновь обрести семью и самого себя.
Сэмпл
Качество: WEB-DL 1080p
Формат: MKV
Видео кодек: H.264
Аудио кодек: AC3
Видео: MPEG-4 AVC (H.264), 1920x1080, ~ 4100 Кбит/с, 25fps, (0.077 bit/pixel)
Аудио: AC3 48.0 KHz 192kbps Stereo

MI

General
Unique ID                      : 252314951911206391434530434126667549807 (0xBDD21795D8F76C78A4B5EFFCD4AB8C6F)
Complete name                  : D:\#Раздача\Чкалов (2012) WEB-DL 1080p - HitWay\Чкалов - 1 серия (2012) WEB-DL 1080p - HitWay.mkv
Format                         : Matroska
Format version                 : Version 4 / Version 2
File size                      : 1.48 GiB
Duration                       : 50mn 38s
Overall bit rate               : 4 194 Kbps
Encoded date                   : UTC 2013-10-09 11:26:59
Writing application            : mkvmerge v6.3.0 ('You can't stop me!') built on Jul 19 2013 16:27:38
Writing library                : libebml v1.3.0 + libmatroska v1.4.1
Video
ID                             : 1
Format                         : AVC
Format/Info                    : Advanced Video Codec
Format profile                 : High@L4.0
Format settings, CABAC         : Yes
Format settings, ReFrames      : 3 frames
Codec ID                       : V_MPEG4/ISO/AVC
Duration                       : 50mn 38s
Bit rate                       : 4 000 Kbps
Width                          : 1 920 pixels
Height                         : 1 080 pixels
Display aspect ratio           : 16:9
Frame rate mode                : Constant
Frame rate                     : 25.000 fps
Color space                    : YUV
Chroma subsampling             : 4:2:0
Bit depth                      : 8 bits
Scan type                      : Progressive
Bits/(Pixel*Frame)             : 0.077
Stream size                    : 1.39 GiB (93%)
Writing library                : x264 core 120
Encoding settings              : cabac=1 / ref=3 / deblock=1:0:0 / analyse=0x3:0x133 / me=umh / subme=7 / psy=1 / psy_rd=1.00:0.00 / mixed_ref=1 / me_range=32 / chroma_me=1 / trellis=2 / 8x8dct=1 / cqm=0 / deadzone=21,11 / fast_pskip=1 / chroma_qp_offset=-2 / threads=12 / sliced_threads=0 / nr=0 / decimate=1 / interlaced=0 / bluray_compat=0 / constrained_intra=0 / bframes=0 / weightp=0 / keyint=75 / keyint_min=26 / scenecut=40 / intra_refresh=0 / rc_lookahead=50 / rc=2pass / mbtree=0 / bitrate=4000 / ratetol=1.0 / qcomp=0.20 / qpmin=10 / qpmax=51 / qpstep=4 / cplxblur=20.0 / qblur=0.5 / vbv_maxrate=5000 / vbv_bufsize=5000 / nal_hrd=none / ip_ratio=1.40 / aq=1:1.00
Default                        : Yes
Forced                         : No
Color primaries                : BT.709
Transfer characteristics       : BT.709
Matrix coefficients            : BT.709
Audio
ID                             : 2
Format                         : AC-3
Format/Info                    : Audio Coding 3
Mode extension                 : CM (complete main)
Format settings, Endianness    : Big
Codec ID                       : A_AC3
Duration                       : 50mn 38s
Bit rate mode                  : Constant
Bit rate                       : 192 Kbps
Channel(s)                     : 2 channels
Channel positions              : Front: L R
Sampling rate                  : 48.0 KHz
Bit depth                      : 16 bits
Compression mode               : Lossy
Stream size                    : 69.5 MiB (5%)
Default                        : Yes
Forced                         : No

Скриншоты

[Профиль] [ЛС]
Кто просматривает тему:

Показать сообщения:    

Текущее время: Сегодня 22:41

Часовой пояс: GMT



Вы не можете начинать темы
Вы не можете отвечать на сообщения
Вы не можете редактировать свои сообщения
Вы не можете удалять свои сообщения
Вы не можете голосовать в опросах
Вы не можете прикреплять файлы к сообщениям
Вы не можете скачивать файлы