Чистое искусство (2016) WEB-DL 720p | iTunes

 
Автор Сообщение

достали все ®

Пол:

Стаж: 1 год 8 месяцев

Сообщений: 6554



Награды: 12 (Подробнее)

За внесенный вклад в развитие сайта (Количество: 1) Mega Seeder 4 (Количество: 1) Mega Seeder 1 (Количество: 1)
Торрент-статистика

Создавать темы 12-Июл-2016 11:06

[Цитировать]

Чистое искусство
Страна: Россия
Год выпуска: 2016
Жанр: триллер, детектив
Продолжительность: 01:28:25
Режиссер: Ренат Давлетьяров
Авторы сценария: Марк Франкетти, Артем Виткин, Юрий Коротков
В ролях: Анна Чиповская, Пётр Фёдоров, Константин Юшкевич, Илья Любимов, Дмитрий Брауэр, Александр Яценко, Алексей Барабаш, Леонид Мозговой
Описание: Саша — известный фотограф. Она молода и красива. Неожиданно её счастливая жизнь рушится. Она становится свидетелем загадочного убийства и тут же оказывается вовлечённой в криминальную аферу, связанную с живописью и большими деньгами. Теперь кажется, что весь мир против неё — за ней охотятся и хотят убить. Пытаясь понять, что с ней происходит, Саша не готова сдаваться. Движимая стремлением разгадать тайну, она начинает своё расследование…

Перевод: не требуется | оригинал (русский)
Субтитры: нет-Качество: WEB-DL 720p
Формат: M4V
Видео кодек: AVC | JPEG
Аудио кодек: AAC | АС3
Видео №1: 1280@960x720 (16:9), 25.000 fps, MPEG-4 AVC ~3 952 kbps avg
Видео №2: 640x360 (16:9), 0.003 fps, JPEG ~1 085 kbps avg
Аудио №1: 48.0 kHz, Advanced Audio Codec LC, 2/0 (L,R) ch, ~157 kbps | RUS
Аудио №2: 48.0 kHz, AC3 Dolby Digital, 3/2 (L,C,R,l,r) + LFE ch, ~384 kbps | RUS
Дата премьеры (РФ): 9 июня 2016, «25th Floor Film»

о формате M4V

Файлы с расширением M4V используются для видео, скачанного из Apple iTunes Store. По сути, представляют собой переименованные файлы MP4. Однако такие файлы могут быть защищены от копирования с помощью технологии Apple FairPlay DRM. MP4 - это формат-контейнер. Как и любой другой формат-контейнер, например AVI, MOV, MKV, он позволяет комбинировать различные мультимедийные потоки (в основном аудио и видео) в один файл.
M4V файлы могут быть проиграны большинством видеопроигрывателей, для этого нужно просто изменить расширение на MР4

Media Info

General
Complete name : Chistoe.Iskusstvo.WEB-DL.72Op.m4v
Format : MPEG-4
Codec ID : M4V
File size : 2.78 GiB
Duration : 1h 28mn
Overall bit rate mode : Variable
Overall bit rate : 4 502 Kbps
Movie name : Чистое искусство
Performer : Ренат Давлетьяров
Director : Ренат Давлетьяров
Actor : Анна Чиповская / Пётр Фёдоров / Константин Юшкевич / Илья Любимов / Дмитрий Брауэр / Александр Яценко / Алексей Барабаш / Леонид Мозговой / Людмила Чурсина / Анатолий Белый
Screenplay by : Марк Франкетти / Артем Виткин / Юрий Коротков
Producer : Ренат Давлетьяров / Максим Поташников / Григорий Подземельный
Production studio : Кинокомпания «Реал-Дакота»
Genre : Русское кино
ContentType : Short Film
Deion : "Ты живешь свою жизнь, думаешь про завтра и не знаешь, что кто-то чужой уже влез в твою жизнь и все в ней зачеркнул..." Саша - известный фотограф. Она молода и красива. Неожиданно ее счастливая жизнь рушится. Она становится свидетелем загадочного убийства и тут же оказывается вовлеченной в криминальную аферу, связанную с живописью и большими деньгами. Теперь кажется, что весь мир против нее - за ней охотятся и хотят убить. Пытаясь понять, что с ней происходит, Саша не готова сдаваться. Движимая стремлением разгадать тайну, она начинает свое расследование...
Recorded date : UTC 2016-01-01 08:00:00
Encoded date : UTC 2016-07-10 19:30:05
Tagged date : UTC 2016-07-10 19:31:11
Cover : Yes
Rating : None
Title/Sort : Чистое искусство
LongDeion : "Ты живешь свою жизнь, думаешь про завтра и не знаешь, что кто-то чужой уже влез в твою жизнь и все в ней зачеркнул..." Саша - известный фотограф. Она молода и красива. Неожиданно ее счастливая жизнь рушится. Она становится свидетелем загадочного убийства и тут же оказывается вовлеченной в криминальную аферу, связанную с живописью и большими деньгами. Теперь кажется, что весь мир против нее - за ней охотятся и хотят убить. Пытаясь понять, что с ней происходит, Саша не готова сдаваться. Движимая стремлением разгадать тайну, она начинает свое расследование...
HDVideo : Yes
AppleStoreCatalogID : 1121945952
Vendor : Apple:vendor_id:2016-803397
ContentRating : ru-movie|12+|200|
Video #1
ID : 1
Format : AVC
Format/Info : Advanced Video Codec
Format profile : Main@L3.1
Format settings, CABAC : No
Format settings, ReFrames : 2 frames
Codec ID : avc1
Codec ID/Info : Advanced Video Coding
Duration : 1h 28mn
Bit rate : 3 952 Kbps
Width : 960 pixels
Height : 720 pixels
Display aspect ratio : 16:9
Frame rate mode : Constant
Frame rate : 25.000 fps
Color space : YUV
Chroma subsampling : 4:2:0
Bit depth : 8 bits
Scan type : Progressive
Bits/(Pixel*Frame) : 0.229
Stream size : 2.44 GiB (88%)
Title : Main Program
Language : Russian
Encoded date : UTC 2016-07-10 19:30:05
Tagged date : UTC 2016-07-10 19:30:24
Color range : Limited
Color primaries : BT.709
Transfer characteristics : BT.709
Matrix coefficients : BT.709
Video #2
ID : 5
Format : JPEG
Codec ID : jpeg
Duration : 1h 28mn
Bit rate mode : Variable
Bit rate : 1 085 bps
Width : 640 pixels
Height : 360 pixels
Display aspect ratio : 16:9
Frame rate mode : Variable
Frame rate : 0.003 fps
Minimum frame rate : 0.002 fps
Maximum frame rate : 0.003 fps
Color space : YUV
Chroma subsampling : 4:2:0
Bit depth : 8 bits
Compression mode : Lossy
Bits/(Pixel*Frame) : 1.570
Stream size : 662 KiB (0%)
Title : Chapter Images
Language : Russian
Encoded date : UTC 2016-07-10 19:30:28
Tagged date : UTC 2016-07-10 19:30:28
Audio #1
ID : 2
Format : AAC
Format/Info : Advanced Audio Codec
Format profile : LC
Codec ID : 40
Duration : 1h 28mn
Bit rate mode : Variable
Bit rate : 157 Kbps
Maximum bit rate : 242 Kbps
Channel(s) : 2 channels
Channel positions : Front: L R
Sampling rate : 48.0 KHz
Compression mode : Lossy
Stream size : 99.3 MiB (3%)
Title : Russian Stereo
Language : Russian
Encoded date : UTC 2016-07-10 19:30:05
Tagged date : UTC 2016-07-10 19:30:10
Audio #2
ID : 3
Format : AC-3
Format/Info : Audio Coding 3
Mode extension : CM (complete main)
Format settings, Endianness : Big
Codec ID : ac-3
Duration : 1h 28mn
Bit rate mode : Constant
Bit rate : 384 Kbps
Channel(s) : 6 channels
Channel positions : Front: L C R, Side: L R, LFE
Sampling rate : 48.0 KHz
Bit depth : 16 bits
Compression mode : Lossy
Stream size : 243 MiB (9%)
Title : Russian DD 5.1
Language : Russian
Encoded date : UTC 2016-07-10 19:30:05
Tagged date : UTC 2016-07-10 19:30:10
Menu #1
00:00:00.000 : Глава 1
00:05:04.120 : Глава 2
00:10:42.360 : Глава 3
00:16:21.800 : Глава 4
00:22:30.120 : Глава 5
00:27:48.800 : Глава 6
00:33:45.240 : Глава 7
00:40:31.080 : Глава 8
00:45:46.080 : Глава 9
00:51:50.800 : Глава 10
00:57:30.240 : Глава 11
01:03:19.640 : Глава 12
01:08:44.280 : Глава 13
01:14:26.720 : Глава 14
01:20:06.720 : Глава 15
Menu #2
ID : 4
Codec ID : text
Duration : 1h 28mn
Language : Russian
Encoded date : UTC 2016-07-10 19:30:24
Tagged date : UTC 2016-07-10 19:30:24
00:00:00.000 : Глава 1
00:05:04.120 : Глава 2
00:10:42.360 : Глава 3
00:16:21.800 : Глава 4
00:22:30.120 : Глава 5
00:27:48.800 : Глава 6
00:33:45.240 : Глава 7
00:40:31.080 : Глава 8
00:45:46.080 : Глава 9
00:51:50.800 : Глава 10
00:57:30.240 : Глава 11
01:03:19.640 : Глава 12
01:08:44.280 : Глава 13
01:14:26.720 : Глава 14
01:20:06.720 : Глава 15
Bit rate mode : VBR

Скриншоты

[Профиль] [ЛС]
Показать сообщения:    

Текущее время: Сегодня 10:46

Часовой пояс: GMT



Вы не можете начинать темы
Вы не можете отвечать на сообщения
Вы не можете редактировать свои сообщения
Вы не можете удалять свои сообщения
Вы не можете голосовать в опросах
Вы не можете прикреплять файлы к сообщениям
Вы не можете скачивать файлы