Чистильщик / Cleaner (Ренни Харлин / Renny Harlin) [2007, США, триллер, криминал, BDRip] AVO (Гаврилов)

 
Автор Сообщение

painkiller ®

Стаж: 2 года 3 месяца

Сообщений: 582



Награды: Нет

Торрент-статистика

Создавать темы 15-Авг-2014 01:09

[Цитировать]

Чистильщик / Cleaner Год выпуска: 2007
Страна: США
Жанр: триллер, криминал
Продолжительность: 01:28:47
Перевод: Авторский (одноголосый, закадровый) - Гаврилов
Русские субтитры: нет
Режиссер: Ренни Харлин / Renny Harlin
Сценарий: Мэттью Олдрич / Matthew Aldrich
Продюсер: Дэнни Димборт / Danny Dimbort, Дэвид Промьер / David Pomier, Эли Селден / Eli Selden, Тревор Шорт / Trevor Short, Джули Силверман / Julie Silverman
Оператор: Скотт Кеван / Scott Kevan
Композитор: Ричард Гиббс / Richard Gibbs
В ролях: Сэмюэл Л. Джексон (Tom Carver), Ева Мендес (Ann Norcut), Эд Харрис (Eddie Lorenzo), Джон Т. Биллингсли (Pedestrian), Эрик Браун (Det. Darrin Harris), Криста Кэмпбелл (Beth Jensen), Хосе Пабло Кантилльо (Miguel), Кип Каммингс (Hearse Driver), Брэд Дисон (News Crew Boom Operator), Тед Фергюсон (The Hot Dog Man), Роберт Форстер (Arlo), Питер Францен (Police officer)-Бюджет: $25 000 000
Сборы в России: $818 044
Мировая премьера: 11 сентября 2007
Релиз на DVD: 23 октября 2008, «Мистерия Звука»-Описание: Главный герой картины работает чистильщиком - он убирает… места преступлений. Однажды случилось так, что «чистильщик» убрал место убийства свидетеля, проходящего по делу о взяточничестве в полиции. Теперь герой вынужден сам разгадать загадку, прежде чем признает свое присутствие на месте преступления. Он рискует головой, так как только он знает, что к делу об убийстве причастен полицейский.-Рейтинг
kinopoisk.ru: 6.604 (5 005)
imdb.com: 6.10 (27 530)
MPAA: R - Лицам до 17 лет обязательно присутствие взрослого--Качество: BDRip - исходник BDRemux Cleaner.2007.Remux.HDTracker
Формат: AVI
Видео: 720x400 (1.80:1), 23.976 fps, XviD build 50 ~1894 kbps avg, 0.27 bit/pixel
Аудио: 48 kHz, AC3 Dolby Digital, 3/2 (L,C,R,l,r) + LFE ch, ~448.00 kbps avg
Семпл: http://multi-up.com/949082-

Знаете ли Вы, что...

  • Дочка главного героя смотрит фильм «Филадельфийская история»(1940).
Скриншоты

MediaInfo

Общее
Полное имя : F:\RT\Chistilshchik.2007.XviD.BDRip.AVO[Gavrilov].avi
Формат : AVI
Формат/Информация : Audio Video Interleave
Размер файла : 1,46 Гбайт
Продолжительность : 1 ч. 28 м.
Общий поток : 2352 Кбит/сек
Название фильма : Chistilshchik.2007.XviD.BDRip.AVO[Gavrilov]
Режиссёр : BDRip - Inch 09.02.14
Жанр : Crime/Thriller
Программа кодирования : VirtualDubMod 1.5.10.3 | www.virtualdub-fr.org || (build 2550/release)
Формат оригинала/Имя : Cleaner / 2007 / Renny Harlin
Правообладатель : torrentfilm.net
Примечание : RusAVO [Gavrilov] - HDTracker
Видео
Идентификатор : 0
Формат : MPEG-4 Visual
Профиль формата : Advanced Simple@L5
Параметр BVOP формата : 2
Параметр QPel формата : Нет
Параметр GMC формата : Без точки перехода
Параметр матрицы формата : Выборочная
Идентификатор кодека : XVID
Идентификатор кодека/Подсказка : XviD
Продолжительность : 1 ч. 28 м.
Битрейт : 1895 Кбит/сек
Ширина : 720 пикселей
Высота : 400 пикселей
Соотношение сторон : 16:9
Частота кадров : 23,976 кадра/сек
Цветовое пространство : YUV
Субдискретизация насыщенности : 4:2:0
Битовая глубина : 8 бит
Тип развёртки : Прогрессивная
Метод сжатия : С потерями
Бит/(Пиксели*Кадры) : 0.274
Размер потока : 1,18 Гбайт (81%)
Библиотека кодирования : XviD 73
Аудио
Идентификатор : 1
Формат : AC-3
Формат/Информация : Audio Coding 3
Расширение режима : CM (complete main)
Параметр Endianness формата : Big
Идентификатор кодека : 2000
Продолжительность : 1 ч. 28 м.
Вид битрейта : Постоянный
Битрейт : 448 Кбит/сек
Каналы : 6 каналов
Расположение каналов : Front: L C R, Side: L R, LFE
Частота : 48,0 КГц
Битовая глубина : 16 бит
Метод сжатия : С потерями
Размер потока : 284 Мбайт (19%)
Выравнивание : Разделение по промежуткам
Продолжительность промежутка : 42 мс. (1,00 видеокадр)
Время предзагрузки промежутка : 500 мс.

Благодарности

За перевод Гаврилова большое спасибо пользователям форума hdtracker и piratca:
SavineX, _MyxAmoP_, Gross1978, rydanes, Brown15, GaryH, spacenoise, KerkP, Consul, Pain_70, dunhill200, Chistobaev, lexal, karantin66, saenwert, chef&chef, olegsoleg, Xerman13, peste, Guyver, zetrob, leha1975, Luka69, Letyoha3, Role, -Джосс-, Luzhok, Диммон, v111o, LAVR, Denis2251, kondratzx, Dr. Destructo-Огромное спасибо KpucTo161 за работу со звуком, Timur - за BDRemux Cleaner.2007.Remux.HDTracker-Спасибо порошкову за оформление раздачи
Внимание! 09.02.14 торрент-файл перезалит. Замена видеоряда
[Профиль] [ЛС]

Создавать темы 06-Авг-2015 23:11 (спустя 11 месяцев 22 дня)

Топик был перенесен из форума Фильмы до 2014 года в форум Фильмы до 2012 года
sergej644
 
Показать сообщения:    

Текущее время: Сегодня 03:25

Часовой пояс: GMT



Вы не можете начинать темы
Вы не можете отвечать на сообщения
Вы не можете редактировать свои сообщения
Вы не можете удалять свои сообщения
Вы не можете голосовать в опросах
Вы не можете прикреплять файлы к сообщениям
Вы не можете скачивать файлы