Чип и Дейл спешат на помощь / Chip 'n' Dale Rescue Rangers - сборник мультфильмов (1947-1992) DVDRip-AVC, SATRip-AVC | КПК

 
Автор Сообщение

sergej644 ®

Пол:

Стаж: 4 года 11 месяцев

Сообщений: 6046

Откуда: Soviet Union



Награды: Нет

Торрент-статистика

Создавать темы 26-Май-2015 08:22

[Цитировать]

Чип и Дейл / Chip an' Dale
Год выпуска: 1947 - 1955
Жанр: Мультфильм, короткометражка
Режиссёр: Джек Ханна
В ролях: Десси Флинн, Джеймс МакДональд, Кларенс Нэш
Серий: 01 - 16 из 16
Общая продолжительность: 01:46:38
Перевод: Профессиональный (дублированный)
Субтитры: Нет
Описание: Чип и Дейл — самые большие шалуны, которых когда-либо создавала студия Дисней. Эти милые и очаровательные бурундучки вечно попадают в неприятности.

Доп. информация: Рип сделан с 2 дисков (Чип и Дейл: Дерево Неприятностей и Чип и Дейл: Проблемы Начинаются) выпущенных в 2004 году
Рип от: Egorijj.Alien
Качество: DVDRip
Формат: MP4
Видео кодек: AVC
Аудио кодек: AAC
Видео: 500 kbps, 480x360 (4:3), 25 fps
Аудио: 128 kbps, 2 ch, 48,0 khz

Скриншоты:

Ми:

General
Complete name : D:ВидеоРип480 mp4Чип и ДейлЧип и Дейл 1.mp4
Format : MPEG-4
Format profile : Base Media
Codec ID : isom
File size : 239 MiB
Duration : 52mn 48s
Overall bit rate mode : Variable
Overall bit rate : 632 Kbps
Encoded date : UTC 2015-05-01 13:15:32
Tagged date : UTC 2015-05-01 13:15:32
Video
ID : 1
Format : AVC
Format/Info : Advanced Video Codec
Format profile : High@L2.2
Format settings, CABAC : Yes
Format settings, ReFrames : 8 frames
Codec ID : avc1
Codec ID/Info : Advanced Video Coding
Duration : 52mn 48s
Bit rate : 500 Kbps
Maximum bit rate : 2 498 Kbps
Width : 480 pixels
Height : 360 pixels
Display aspect ratio : 4:3
Frame rate mode : Constant
Frame rate : 25.000 fps
Color space : YUV
Chroma subsampling : 4:2:0
Bit depth : 8 bits
Scan type : Progressive
Bits/(Pixel*Frame) : 0.116
Stream size : 189 MiB (79%)
Writing library : x264 core 130 r2273 b3065e6
Encoding settings : cabac=1 / ref=8 / deblock=1:-1:-1 / analyse=0x3:0x133 / me=umh / subme=7 / psy=1 / psy_rd=1.00:0.10 / mixed_ref=1 / me_range=16 / chroma_me=1 / trellis=2 / 8x8dct=1 / cqm=0 / deadzone=21,11 / fast_pskip=0 / chroma_qp_offset=-3 / threads=3 / lookahead_threads=1 / sliced_threads=0 / nr=0 / decimate=1 / interlaced=0 / bluray_compat=0 / constrained_intra=0 / bframes=3 / b_pyramid=2 / b_adapt=2 / b_bias=0 / direct=3 / weightb=1 / open_gop=0 / weightp=2 / keyint=250 / keyint_min=25 / scenecut=40 / intra_refresh=0 / rc_lookahead=50 / rc=2pass / mbtree=1 / bitrate=500 / ratetol=1.0 / qcomp=0.60 / qpmin=0 / qpmax=69 / qpstep=4 / cplxblur=20.0 / qblur=0.5 / ip_ratio=1.40 / aq=1:1.00
Encoded date : UTC 2015-05-01 13:15:32
Tagged date : UTC 2015-05-01 13:15:51
Audio
ID : 2
Format : AAC
Format/Info : Advanced Audio Codec
Format profile : LC
Codec ID : 40
Duration : 52mn 48s
Bit rate mode : Variable
Bit rate : 128 Kbps
Maximum bit rate : 134 Kbps
Channel(s) : 2 channels
Channel positions : Front: L R
Sampling rate : 48.0 KHz
Compression mode : Lossy
Stream size : 48.3 MiB (20%)
Encoded date : UTC 2015-05-01 13:15:46
Tagged date : UTC 2015-05-01 13:15:51

Список серий:

01. Работа за орехи
02. Верхом на ветке
03. Кукурузные хлопья
04. Любители игрушек
05. Завтрак для троих
06. Дональд - яблочная сердцевина
07. Сражение с драконом
08. Запас на зиму
09. В скорлупе
10. Необычный цеплёнок
11. Чип и Дейл
12. Все не так!
13. Соперники
14. На дереве
15. Кому достанется на орехи
16. Испорченный отдых

-
Чип и Дейл спешат на помощь / Chip 'n' Dale Rescue Rangers
Год выпуска: 1989 - 1992
Страна: США
Студия: Walt Disney Television Animation
Жанр: Мультфильм, сериал
Режиссёр: Джон Кимболл, Боб Дзамбони, Алан Заслов
В ролях: Кори Бертон, Питер Каллен, Джим Каммингс, Тресс МакНилл, Роб Полсен, Дэнни Гэнс, Питер Шрум, Дебора Уолли, Алан Оппенхаймер, Синди МакКей
Серий: 01 - 65 из 65
Продолжительность: 65 x ~ 00:22:37 Общая: 24:31:45
Перевод:
01-52: Профессиональный (дублированный) от ТСК (Телевизионная Студия Кинопрограмм)
53-65: Профессиональный (дублированный) от Невафильм
Субтитры: Нет
Описание: Чип и Дейл — самые большие шалуны, которых когда-либо создавала студия Дисней. Эти милые и очаровательные бурундучки вечно попадают в неприятности.

Рип от: Egorijj.Alien
Тех.данные серий 01-28, 30-44, 46-48, 50, 52-53, 56-57:
Качество: DVDRip
Формат: MP4
Видео кодек: AVC
Аудио кодек: AAC
Видео: 512 kbps, 480x360 (4:3), 29.970 fps
Аудио: 128 kbps, 2 ch, 48,0 khz

Скриншоты:

Ми:

General
Complete name : D:ВидеоРип480 mp4Чип и ДейлЧип и Дейл спешат на помощь1 Catteries Not Included.mp4
Format : MPEG-4
Format profile : Base Media
Codec ID : isom
File size : 105 MiB
Duration : 22mn 47s
Overall bit rate mode : Variable
Overall bit rate : 645 Kbps
Encoded date : UTC 2015-04-26 18:39:28
Tagged date : UTC 2015-04-26 18:39:28
Video
ID : 1
Format : AVC
Format/Info : Advanced Video Codec
Format profile : High@L3.0
Format settings, CABAC : Yes
Format settings, ReFrames : 8 frames
Codec ID : avc1
Codec ID/Info : Advanced Video Coding
Duration : 22mn 47s
Bit rate : 512 Kbps
Maximum bit rate : 1 441 Kbps
Width : 480 pixels
Height : 360 pixels
Display aspect ratio : 4:3
Frame rate mode : Constant
Frame rate : 29.970 fps
Color space : YUV
Chroma subsampling : 4:2:0
Bit depth : 8 bits
Scan type : Progressive
Bits/(Pixel*Frame) : 0.099
Stream size : 83.4 MiB (79%)
Writing library : x264 core 130 r2273 b3065e6
Encoding settings : cabac=1 / ref=8 / deblock=1:-1:-1 / analyse=0x3:0x133 / me=umh / subme=7 / psy=1 / psy_rd=1.00:0.10 / mixed_ref=1 / me_range=16 / chroma_me=1 / trellis=2 / 8x8dct=1 / cqm=0 / deadzone=21,11 / fast_pskip=0 / chroma_qp_offset=-3 / threads=3 / lookahead_threads=1 / sliced_threads=0 / nr=0 / decimate=1 / interlaced=0 / bluray_compat=0 / constrained_intra=0 / bframes=3 / b_pyramid=2 / b_adapt=2 / b_bias=0 / direct=3 / weightb=1 / open_gop=0 / weightp=2 / keyint=250 / keyint_min=25 / scenecut=40 / intra_refresh=0 / rc_lookahead=50 / rc=2pass / mbtree=1 / bitrate=512 / ratetol=1.0 / qcomp=0.60 / qpmin=0 / qpmax=69 / qpstep=4 / cplxblur=20.0 / qblur=0.5 / ip_ratio=1.40 / aq=1:1.00
Encoded date : UTC 2015-04-26 18:39:28
Tagged date : UTC 2015-04-26 18:39:34
Audio
ID : 2
Format : AAC
Format/Info : Advanced Audio Codec
Format profile : LC
Codec ID : 40
Duration : 22mn 47s
Bit rate mode : Variable
Bit rate : 128 Kbps
Maximum bit rate : 133 Kbps
Channel(s) : 2 channels
Channel positions : Front: L R
Sampling rate : 48.0 KHz
Compression mode : Lossy
Stream size : 20.9 MiB (20%)
Encoded date : UTC 2015-04-26 18:39:33
Tagged date : UTC 2015-04-26 18:39:34
Тех.данные серий 29, 45, 49, 51, 54-55, 58-65:
Качество: SATRip
Формат: MP4
Видео кодек: AVC
Аудио кодек: AAC
Видео: 500 kbps, 480x360 (4:3), 25 fps
Аудио: 128 kbps, 2 ch, 48,0 khz

Скриншоты:

Ми:

General
Complete name : D:ВидеоРип480 mp4Чип и ДейлЧип и Дейл спешат на помощь65 Gorilla My Dreams.mp4
Format : MPEG-4
Format profile : Base Media
Codec ID : isom
File size : 99.1 MiB
Duration : 21mn 54s
Overall bit rate mode : Variable
Overall bit rate : 632 Kbps
Encoded date : UTC 2015-05-01 04:06:30
Tagged date : UTC 2015-05-01 04:06:30
Video
ID : 1
Format : AVC
Format/Info : Advanced Video Codec
Format profile : High@L2.2
Format settings, CABAC : Yes
Format settings, ReFrames : 8 frames
Codec ID : avc1
Codec ID/Info : Advanced Video Coding
Duration : 21mn 54s
Bit rate : 500 Kbps
Maximum bit rate : 1 528 Kbps
Width : 480 pixels
Height : 360 pixels
Display aspect ratio : 4:3
Frame rate mode : Constant
Frame rate : 25.000 fps
Color space : YUV
Chroma subsampling : 4:2:0
Bit depth : 8 bits
Scan type : Progressive
Bits/(Pixel*Frame) : 0.116
Stream size : 78.4 MiB (79%)
Writing library : x264 core 130 r2273 b3065e6
Encoding settings : cabac=1 / ref=8 / deblock=1:-1:-1 / analyse=0x3:0x133 / me=umh / subme=7 / psy=1 / psy_rd=1.00:0.10 / mixed_ref=1 / me_range=16 / chroma_me=1 / trellis=2 / 8x8dct=1 / cqm=0 / deadzone=21,11 / fast_pskip=0 / chroma_qp_offset=-3 / threads=3 / lookahead_threads=1 / sliced_threads=0 / nr=0 / decimate=1 / interlaced=0 / bluray_compat=0 / constrained_intra=0 / bframes=3 / b_pyramid=2 / b_adapt=2 / b_bias=0 / direct=3 / weightb=1 / open_gop=0 / weightp=2 / keyint=250 / keyint_min=25 / scenecut=40 / intra_refresh=0 / rc_lookahead=50 / rc=2pass / mbtree=1 / bitrate=500 / ratetol=1.0 / qcomp=0.60 / qpmin=0 / qpmax=69 / qpstep=4 / cplxblur=20.0 / qblur=0.5 / ip_ratio=1.40 / aq=1:1.00
Encoded date : UTC 2015-05-01 04:06:30
Tagged date : UTC 2015-05-01 04:06:35
Audio
ID : 2
Format : AAC
Format/Info : Advanced Audio Codec
Format profile : LC
Codec ID : 40
Duration : 21mn 54s
Bit rate mode : Variable
Bit rate : 128 Kbps
Maximum bit rate : 132 Kbps
Channel(s) : 2 channels
Channel positions : Front: L R
Sampling rate : 48.0 KHz
Compression mode : Lossy
Stream size : 20.1 MiB (20%)
Encoded date : UTC 2015-05-01 04:06:34
Tagged date : UTC 2015-05-01 04:06:35

Список серий:

01. To the rescue, part 1 – Похищенный рубин, часть 1
02. To the rescue, part 2 – Как мы встретились с Рокфором (Похищенный рубин, часть 2)
03. To the rescue, part 3 – История знакомства с Гайкой (Похищенный рубин, часть 3)
04. Rescue rangers to the rescue, part 4 – Итак, работаем вместе (Похищенный рубин, часть 4)
05. Rescue rangers to the rescue, part 5 – Конец истории с рубином (Похищенный рубин, часть 5)
06. Catteries not included – Кошки не в счёт
07. Three men and a booby – Приключения коралловой клуши
08. The carpetsnaggers – Охотники за коврами
09. Piratsy under the seas – Подводные пираты
10. Adventures in squirrelsitting – Как мы нянчились с бельчатами
11. Flash the wonder dog – Удивительная собака Флеш
12. Pound of the baskervilles – Завещание сэра Баскервилля
13. Parental discretion retired – Родительское благоразумие – в сторону
14. Risky beesiness – Пчёлы - дело рискованное
15. Bearing up baby – Держись, малыш
16. Out to launch – На старт
17. Dale beside himself – Дейл-инопланетянин
18. Kiwi's big adventure – Большое приключение киви
19. A lad in a lamp – Волшебная лампа
20. Battle of the bulge – Битва в воздухе
21. Normie's science projec – Изобретение Норми
22. Ghost of a chance – Призрак удачи
23. An elephant never suspects – А слон и не подозревал
24. A case of stage blight – Гроза подмостков
25. The luck stops here – Не везёт, так не везёт
26. Fake me to your leader – Попробуй, обмани
27. Last train to cashville – Последний поезд в Долларвиль
28. The case of the cola cult – Культ Ку-Ку-Колы
29. Throw mummy from the train – Похождения мумии
30. A wolf in cheap clothing – Забавный оборотень
31. Prehysterical pet – Паника в музее
32. Robocat – Робокот
33. Does pavlov ring a bell? – Знаете ли вы теорию Павлова?
34. A creep in the deep – Подводный кошмар
35. Seer no evil – Не искушай судьбу
36. Chocolate chips – Шоколадные чипсы
37. The s.s.drainpipe – Плывёт, плывёт кораблик
38. Chipwrecked shipmunks – Жертвы кораблекрушения
39. The last leprechaun – Последний эльф
40. Double o' chipmunk – Бурундуки на секретной службе
41. Song of the night and Dale – Ночная песня соловья
42. Love is a many splintered thing – Сила любви
43. Weather or not – В любую погоду
44. Out of scale – Эффект масштаба
45. Gadget goes hawaian – Гайка на Гавайях (по ТВ после идут серии 1-5)
46. Good times, bat times – Мой друг летучая мышь
47. Short orded crooks – Обманщики по заказу
48. When mice were men – Когда все мыши замерли от страха
49. It's a bird, it's insane, it's Dale! – Безумный Дейл
50. They shoot dogs, don't they – Загнанных собак – меняют
51. One-upsman-Chip – Великий Чип
52. Zipper, come home – Вжик, вернись домой
53. Shell shocked – Ракушечный бум
54. Puffed rangers – Дутые спасатели
55. A fly in the ointment – Мухи – отдельно
56. Dirty rotten diapers – Операция Подгузник
57. Mind your cheese and q's – Сыру – мир!
58. Pie in the sky – Птицефабрика
59. A chorus crime – Туфли и айсберги
60. Le purrfect crime – Отважный воин
61. When you fish upon a star – Звёздам можно верить
62. A lean on the property – Не рой яму собаке
63. Rest home rangers – Чернослив и день рождения
64. The pied piper power play – Картофель под мышами
65. Gorilla my dreams – Гориллам не нужны бриллианты
[Профиль] [ЛС]
Показать сообщения:    

Текущее время: Сегодня 20:44

Часовой пояс: GMT



Вы не можете начинать темы
Вы не можете отвечать на сообщения
Вы не можете редактировать свои сообщения
Вы не можете удалять свои сообщения
Вы не можете голосовать в опросах
Вы не можете прикреплять файлы к сообщениям
Вы не можете скачивать файлы