Чиполлино, Заколдованный мальчик (1955, 1961) DVDRip

 
Автор Сообщение

Russian Mafia ®

Пол:

Стаж: 1 год 8 месяцев

Сообщений: 4252



Награды: 10 (Подробнее)

За внесенный вклад в развитие сайта (Количество: 1) Mega Seeder 1 (Количество: 1) Mega Seeder 5 (Количество: 1)
Торрент-статистика

Создавать темы 09-Сен-2015 13:02

[Цитировать]

Страна: СССР
Год выпуска: 1961, 1955
Студия: Союзмультфильм
Жанр: мультфильм, короткометражка, семейный
Продолжительность: 00:39:18 + 00:45:36
Перевод: не требуется
Оригинальная аудиодорожка: русский
Cубтитры: нет
Режиссер: Борис Дежкин, Владимир Полковников
Чиполлино:
Знакомая каждому с детства сказка Джанни Родари рассказывает о мальчике-луковке и его друзьях из «фруктово-овощного» сказочного мира, которые борются за справедливость и мечтают о добре… рисованный , экранизация сказки Джанни Родари сценарист Мстислав Пащенко художник-постановщик Перч Саркисян xудожники В. Валерианова, Константин Карпов аниматоры Фаина Епифанова, Борис Дежкин, Вадим Долгих, Владимир Крумин, О. Столбова, Виктор Арсентьев, Р. Овивян, Анатолий Солин, Сергей Дежкин, Виталий Бобров, Константин Чикин, Владимир Карп оператор Елена Петрова директор Федор Иванов композитор Карен Хачатурян звукооператор Борис Фильчиков редактор Раиса Фричинская декорации Вера Черкинская текст песен (стихов) Вадим Коростылев роли озвучивали: Вера Орлова, Михаил Названов, Виктор Кольцов, Анастасия Георгиевская...
Заколдованный мальчик:
Мультипликационный фильм по мотивам повести С. Лагерлеф «Чудесное путешествие Нильса с дикими гусями». Сказочная история рассказывает об озорнике Нильсе, который обидел волшебного Гнома, за что был наказан: превращен в карлика и унесен гусями в Лапландию. Много благородных поступков совершил мальчик, прежде чем Гном снял с него чары... рисованный , сценарист Михаил Вольпин художники-постановщики Роман Качанов, Гражина Брашишките, Лев Мильчин xудожники Петр Коробаев, Ирина Светлица, И. Прокофьева аниматоры Борис Меерович, Лев Позднеев, Рената Миренкова, Игорь Подгорский, Федор Хитрук, Владимир Крумин, Геннадий Новожилов, Борис Чани, Константин Чикин, Татьяна Таранович, Фаина Епифанова, Л. Попов, Вадим Долгих оператор Михаил Друян композитор Владимир Юровский звукооператор Николай Прилуцкий роли озвучивали: Анатолий Кубацкий (Гном) , Эраст Гарин (Мартин) , Георгий Вицин (Розенбом) , Валентина Сперантова (Нильс) , Алексей Консовский, Т. Струкова монтажер Нина Майорова…- - -Исходник: DVD5 R5
Тип релиза: DVDRip
Контейнер: AVI
Видео 1: 704x528 (4:3), 25 fps, XviD ~ 2121 kbps avg, 0.228 bit/pixel
Видео 2: 688x512 (4:3), 25 fps, XviD ~ 2124 kbps avg, 0.241 bit/pixel
Аудио: 48 kHz, AC3, 6 ch, 448.00 kbps

MediaInfo 1

Общее
Полное имя : Chipollino.1961.DVDRip_[Youtracker]_by_AVP Studio.avi
Формат : AVI
Формат/Информация : Audio Video Interleave
Размер файла : 695 Мбайт
Продолжительность : 37 м.
Общий поток : 2579 Кбит/сек
Программа кодирования : VirtualDubModRus 1.5.10.2 (build 2542/release)
Библиотека кодирования : VirtualDubMod build 2542/release
Видео
Идентификатор : 0
Формат : MPEG-4 Visual
Профиль формата : Advanced Simple@L5
Параметр BVOP формата : 1
Параметр QPel формата : Нет
Параметр GMC формата : Без точки перехода
Параметр матрицы формата : Выборочная
Идентификатор кодека : XVID
Идентификатор кодека/Подсказка : XviD
Продолжительность : 37 м.
Битрейт : 2121 Кбит/сек
Ширина : 704 пикселя
Высота : 528 пикселей
Соотношение сторон : 4:3
Частота кадров : 25,000 кадров/сек
Цветовое пространство : YUV
Субдискретизация насыщенности : 4:2:0
Битовая глубина : 8 бит
Тип развёртки : Прогрессивная
Метод сжатия : С потерями
Бит/(Пиксели*Кадры) : 0.228
Размер потока : 572 Мбайт (82%)
Библиотека кодирования : XviD 65
Аудио
Идентификатор : 1
Формат : AC-3
Формат/Информация : Audio Coding 3
Расширение режима : CM (complete main)
Идентификатор кодека : 2000
Продолжительность : 37 м.
Вид битрейта : Постоянный
Битрейт : 448 Кбит/сек
Каналы : 6 каналов
Расположение каналов : Front: L C R, Side: L R, LFE
Частота : 48,0 КГц
Битовая глубина : 16 бит
Метод сжатия : С потерями
Размер потока : 121 Мбайт (17%)
Выравнивание : Разделение по промежуткам
Продолжительность промежутка : 40 мс. (1,00 видеокадр)
Время предзагрузки промежутка : 500 мс

MediaInfo 2

Общее
Полное имя : Zakoldovannyj.mal'chik.1955.DVDRip_[Youtracker]_by_AVP Studio.avi
Формат : AVI
Формат/Информация : Audio Video Interleave
Размер файла : 791 Мбайт
Продолжительность : 42 м.
Общий поток : 2581 Кбит/сек
Программа кодирования : VirtualDubMod 1.5.10.3 | www.virtualdub-fr.org || (build 2550/release)
Библиотека кодирования : VirtualDubMod build 2550/release
Видео
Идентификатор : 0
Формат : MPEG-4 Visual
Профиль формата : Advanced Simple@L5
Параметр BVOP формата : 1
Параметр QPel формата : Нет
Параметр GMC формата : Без точки перехода
Параметр матрицы формата : Выборочная
Идентификатор кодека : XVID
Идентификатор кодека/Подсказка : XviD
Продолжительность : 42 м.
Битрейт : 2124 Кбит/сек
Ширина : 688 пикселей
Высота : 512 пикселей
Соотношение сторон : 4:3
Частота кадров : 25,000 кадров/сек
Цветовое пространство : YUV
Субдискретизация насыщенности : 4:2:0
Битовая глубина : 8 бит
Тип развёртки : Прогрессивная
Метод сжатия : С потерями
Бит/(Пиксели*Кадры) : 0.241
Размер потока : 651 Мбайт (82%)
Библиотека кодирования : XviD 65
Аудио
Идентификатор : 1
Формат : AC-3
Формат/Информация : Audio Coding 3
Расширение режима : CM (complete main)
Идентификатор кодека : 2000
Продолжительность : 42 м.
Вид битрейта : Постоянный
Битрейт : 448 Кбит/сек
Каналы : 6 каналов
Расположение каналов : Front: L C R, Side: L R, LFE
Частота : 48,0 КГц
Битовая глубина : 16 бит
Метод сжатия : С потерями
Размер потока : 137 Мбайт (17%)
Выравнивание : Разделение по промежуткам
Продолжительность промежутка : 40 мс. (1,00 видеокадр)
Время предзагрузки промежутка : 500 мс

Скриншоты

Крупный план, Полная реставрация изображения и звука.
[Профиль] [ЛС]
Показать сообщения:    

Текущее время: Сегодня 18:42

Часовой пояс: GMT



Вы не можете начинать темы
Вы не можете отвечать на сообщения
Вы не можете редактировать свои сообщения
Вы не можете удалять свои сообщения
Вы не можете голосовать в опросах
Вы не можете прикреплять файлы к сообщениям
Вы не можете скачивать файлы