Чиполлино, Заколдованный мальчик (1955, 1961) DVDRip-AVC от New-Team

 
Автор Сообщение

Белочка ®

Пол:

Стаж: 5 лет 1 месяц

Сообщений: 2089



Награды: 1 (Подробнее)

Girls (Количество: 1)
Торрент-статистика

Создавать темы 25-Окт-2014 15:29

[Цитировать]

Страна: СССР
Год выпуска: 1961, 1955
Студия: Союзмультфильм
Жанр: мультфильм, короткометражка, семейный
Продолжительность: 00:39:18 + 00:45:36
Перевод: не требуется
Оригинальная аудиодорожка: русский
Cубтитры: нет
Режиссер: Борис Дежкин, Владимир Полковников
Чиполлино:
Знакомая каждому с детства сказка Джанни Родари рассказывает о мальчике-луковке и его друзьях из «фруктово-овощного» сказочного мира, которые борются за справедливость и мечтают о добре… рисованный , экранизация сказки Джанни Родари сценарист Мстислав Пащенко художник-постановщик Перч Саркисян xудожники В. Валерианова, Константин Карпов аниматоры Фаина Епифанова, Борис Дежкин, Вадим Долгих, Владимир Крумин, О. Столбова, Виктор Арсентьев, Р. Овивян, Анатолий Солин, Сергей Дежкин, Виталий Бобров, Константин Чикин, Владимир Карп оператор Елена Петрова директор Федор Иванов композитор Карен Хачатурян звукооператор Борис Фильчиков редактор Раиса Фричинская декорации Вера Черкинская текст песен (стихов) Вадим Коростылев роли озвучивали: Вера Орлова, Михаил Названов, Виктор Кольцов, Анастасия Георгиевская...
Заколдованный мальчик:
Мультипликационный фильм по мотивам повести С. Лагерлеф «Чудесное путешествие Нильса с дикими гусями». Сказочная история рассказывает об озорнике Нильсе, который обидел волшебного Гнома, за что был наказан: превращен в карлика и унесен гусями в Лапландию. Много благородных поступков совершил мальчик, прежде чем Гном снял с него чары... рисованный , сценарист Михаил Вольпин художники-постановщики Роман Качанов, Гражина Брашишките, Лев Мильчин xудожники Петр Коробаев, Ирина Светлица, И. Прокофьева аниматоры Борис Меерович, Лев Позднеев, Рената Миренкова, Игорь Подгорский, Федор Хитрук, Владимир Крумин, Геннадий Новожилов, Борис Чани, Константин Чикин, Татьяна Таранович, Фаина Епифанова, Л. Попов, Вадим Долгих оператор Михаил Друян композитор Владимир Юровский звукооператор Николай Прилуцкий роли озвучивали: Анатолий Кубацкий (Гном) , Эраст Гарин (Мартин) , Георгий Вицин (Розенбом) , Валентина Сперантова (Нильс) , Алексей Консовский, Т. Струкова монтажер Нина Майорова…- - -Исходник: DVD5 R5
Тип релиза: DVDRip-AVC
Контейнер: MKV
Видео 1: 720x576@768x576 (4:3), 25 fps, H264 ~ 2138 kbps avg, 0.206 bit/pixel
Видео 2: 696x556@742x556 (4:3), 25 fps, H264 ~ 2138 kbps avg, 0.221 bit/pixel
Аудио: 48 kHz, AC3, 6 ch, 448.00 kbps

MediaInfo 1

Общее
Полное имя : Chipollino.1961.DVDRip_[Youtracker]_by_AVP Studio.mkv
Формат : Matroska
Версия формата : Version 2
Размер файла : 698 Мбайт
Продолжительность : 37 м.
Общий поток : 2589 Кбит/сек
Дата кодирования : UTC 2012-12-24 16:06:36
Программа кодирования : mkvmerge v5.8.0 ('No Sleep / Pillow') built on Sep 2 2012 15:37:04
Библиотека кодирования : libebml v1.2.3 + libmatroska v1.3.0
Видео
Идентификатор : 1
Формат : AVC
Формат/Информация : Advanced Video Codec
Профиль формата : High@L4.1
Параметр CABAC формата : Да
Параметр ReFrames формата : 11 кадров
Идентификатор кодека : V_MPEG4/ISO/AVC
Продолжительность : 37 м.
Битрейт : 2138 Кбит/сек
Ширина : 720 пикселей
Высота : 576 пикселей
Соотношение сторон : 4:3
Частота кадров : 25,000 кадров/сек
Стандарт вещания : PAL
Цветовое пространство : YUV
Субдискретизация насыщенности : 4:2:0
Битовая глубина : 8 бит
Тип развёртки : Прогрессивная
Бит/(Пиксели*Кадры) : 0.206
Размер потока : 563 Мбайт (81%)
Библиотека кодирования : x264 core 119 r2106 07efeb4
Настройки программы : cabac=1 / ref=11 / deblock=1:-2:-1 / analyse=0x3:0x113 / me=umh / subme=9 / psy=1 / psy_rd=1.00:0.20 / mixed_ref=1 / me_range=32 / chroma_me=1 / trellis=1 / 8x8dct=1 / cqm=0 / deadzone=21,11 / fast_pskip=0 / chroma_qp_offset=-3 / threads=3 / sliced_threads=0 / nr=0 / decimate=0 / interlaced=0 / bluray_compat=0 / constrained_intra=0 / bframes=8 / b_pyramid=2 / b_adapt=2 / b_bias=0 / direct=3 / weightb=1 / open_gop=0 / weightp=2 / keyint=250 / keyint_min=25 / scenecut=40 / intra_refresh=0 / rc_lookahead=60 / rc=2pass / mbtree=1 / bitrate=2138 / ratetol=1.0 / qcomp=0.60 / qpmin=0 / qpmax=69 / qpstep=4 / cplxblur=20.0 / qblur=0.5 / ip_ratio=1.40 / aq=1:1.00
Default : Да
Forced : Нет
Аудио
Идентификатор : 2
Формат : AC-3
Формат/Информация : Audio Coding 3
Расширение режима : CM (complete main)
Идентификатор кодека : A_AC3
Продолжительность : 37 м.
Вид битрейта : Постоянный
Битрейт : 448 Кбит/сек
Каналы : 6 каналов
Расположение каналов : Front: L C R, Side: L R, LFE
Частота : 48,0 КГц
Битовая глубина : 16 бит
Метод сжатия : С потерями
Размер потока : 121 Мбайт (17%)
Default : Да
Forced : Нет

MediaInfo 2

Общее
Полное имя : Zakoldovannyj.mal'chik.1955.DVDRip-AVC_[Youtracker]_by_AVP Studio.mkv
Формат : Matroska
Версия формата : Version 2
Размер файла : 793 Мбайт
Продолжительность : 42 м.
Общий поток : 2587 Кбит/сек
Дата кодирования : UTC 2012-12-24 11:23:32
Программа кодирования : mkvmerge v5.0.1 ('Es ist Sommer') built on Nov 6 2011 16:23:40
Библиотека кодирования : libebml v1.2.2 + libmatroska v1.3.0
Видео
Идентификатор : 1
Формат : AVC
Формат/Информация : Advanced Video Codec
Профиль формата : High@L4.1
Параметр CABAC формата : Да
Параметр ReFrames формата : 11 кадров
Идентификатор кодека : V_MPEG4/ISO/AVC
Продолжительность : 42 м.
Битрейт : 2138 Кбит/сек
Ширина : 696 пикселей
Высота : 556 пикселей
Соотношение сторон : 4:3
Частота кадров : 25,000 кадров/сек
Цветовое пространство : YUV
Субдискретизация насыщенности : 4:2:0
Битовая глубина : 8 бит
Тип развёртки : Прогрессивная
Бит/(Пиксели*Кадры) : 0.221
Размер потока : 640 Мбайт (81%)
Библиотека кодирования : x264 core 119 r2106 07efeb4
Настройки программы : cabac=1 / ref=11 / deblock=1:-2:-1 / analyse=0x3:0x113 / me=umh / subme=9 / psy=1 / psy_rd=1.00:0.20 / mixed_ref=1 / me_range=32 / chroma_me=1 / trellis=1 / 8x8dct=1 / cqm=0 / deadzone=21,11 / fast_pskip=0 / chroma_qp_offset=-3 / threads=3 / sliced_threads=0 / nr=0 / decimate=0 / interlaced=0 / bluray_compat=0 / constrained_intra=0 / bframes=8 / b_pyramid=2 / b_adapt=2 / b_bias=0 / direct=3 / weightb=1 / open_gop=0 / weightp=2 / keyint=250 / keyint_min=25 / scenecut=40 / intra_refresh=0 / rc_lookahead=60 / rc=2pass / mbtree=1 / bitrate=2138 / ratetol=1.0 / qcomp=0.60 / qpmin=0 / qpmax=69 / qpstep=4 / cplxblur=20.0 / qblur=0.5 / ip_ratio=1.40 / aq=1:1.00
Default : Да
Forced : Нет
Аудио
Идентификатор : 2
Формат : AC-3
Формат/Информация : Audio Coding 3
Расширение режима : CM (complete main)
Идентификатор кодека : A_AC3
Продолжительность : 42 м.
Вид битрейта : Постоянный
Битрейт : 448 Кбит/сек
Каналы : 6 каналов
Расположение каналов : Front: L C R, Side: L R, LFE
Частота : 48,0 КГц
Битовая глубина : 16 бит
Метод сжатия : С потерями
Размер потока : 137 Мбайт (17%)
Default : Да
Forced : Нет

Скриншоты

Крупный план, Полная реставрация изображения и звука.
[Профиль] [ЛС]
Показать сообщения:    

Текущее время: Сегодня 21:34

Часовой пояс: GMT



Вы не можете начинать темы
Вы не можете отвечать на сообщения
Вы не можете редактировать свои сообщения
Вы не можете удалять свои сообщения
Вы не можете голосовать в опросах
Вы не можете прикреплять файлы к сообщениям
Вы не можете скачивать файлы