Чиполлино, Заколдованный мальчик (1955, 1961) DVDRip от New-Team

 
Автор Сообщение

Белочка ®

Пол:

Стаж: 5 лет 1 месяц

Сообщений: 2089



Награды: 1 (Подробнее)

Girls (Количество: 1)
Торрент-статистика

Создавать темы 25-Окт-2014 15:28

[Цитировать]

Страна: СССР
Год выпуска: 1961, 1955
Студия: Союзмультфильм
Жанр: мультфильм, короткометражка, семейный
Продолжительность: 00:39:18 + 00:45:36
Перевод: не требуется
Оригинальная аудиодорожка: русский
Cубтитры: нет
Режиссер: Борис Дежкин, Владимир Полковников
Чиполлино:
Знакомая каждому с детства сказка Джанни Родари рассказывает о мальчике-луковке и его друзьях из «фруктово-овощного» сказочного мира, которые борются за справедливость и мечтают о добре… рисованный , экранизация сказки Джанни Родари сценарист Мстислав Пащенко художник-постановщик Перч Саркисян xудожники В. Валерианова, Константин Карпов аниматоры Фаина Епифанова, Борис Дежкин, Вадим Долгих, Владимир Крумин, О. Столбова, Виктор Арсентьев, Р. Овивян, Анатолий Солин, Сергей Дежкин, Виталий Бобров, Константин Чикин, Владимир Карп оператор Елена Петрова директор Федор Иванов композитор Карен Хачатурян звукооператор Борис Фильчиков редактор Раиса Фричинская декорации Вера Черкинская текст песен (стихов) Вадим Коростылев роли озвучивали: Вера Орлова, Михаил Названов, Виктор Кольцов, Анастасия Георгиевская...
Заколдованный мальчик:
Мультипликационный фильм по мотивам повести С. Лагерлеф «Чудесное путешествие Нильса с дикими гусями». Сказочная история рассказывает об озорнике Нильсе, который обидел волшебного Гнома, за что был наказан: превращен в карлика и унесен гусями в Лапландию. Много благородных поступков совершил мальчик, прежде чем Гном снял с него чары... рисованный , сценарист Михаил Вольпин художники-постановщики Роман Качанов, Гражина Брашишките, Лев Мильчин xудожники Петр Коробаев, Ирина Светлица, И. Прокофьева аниматоры Борис Меерович, Лев Позднеев, Рената Миренкова, Игорь Подгорский, Федор Хитрук, Владимир Крумин, Геннадий Новожилов, Борис Чани, Константин Чикин, Татьяна Таранович, Фаина Епифанова, Л. Попов, Вадим Долгих оператор Михаил Друян композитор Владимир Юровский звукооператор Николай Прилуцкий роли озвучивали: Анатолий Кубацкий (Гном) , Эраст Гарин (Мартин) , Георгий Вицин (Розенбом) , Валентина Сперантова (Нильс) , Алексей Консовский, Т. Струкова монтажер Нина Майорова…- - -Исходник: DVD5 R5
Тип релиза: DVDRip
Контейнер: AVI
Видео 1: 640x480 (4:3), 25 fps, XviD ~ 1476 kbps avg, 0.192 bit/pixel
Видео 2: 640x480 (4:3), 25 fps, XviD ~ 1357 kbps avg, 0.177 bit/pixel
Аудио: 48 kHz, MP3, 2 ch, 128.00 kbps

MediaInfo 1

Общее
Полное имя : Chipollino.1961.DVDRip_[Youtracker]_by_AVP Studio.avi
Формат : AVI
Формат/Информация : Audio Video Interleave
Размер файла : 435 Мбайт
Продолжительность : 37 м.
Общий поток : 1613 Кбит/сек
Программа кодирования : VirtualDubMod 1.5.10.3 | www.virtualdub-fr.org || (build 2550/release)
Библиотека кодирования : VirtualDubMod build 2550/release
Видео
Идентификатор : 0
Формат : MPEG-4 Visual
Профиль формата : Advanced Simple@L5
Параметр BVOP формата : 1
Параметр QPel формата : Нет
Параметр GMC формата : Без точки перехода
Параметр матрицы формата : Выборочная
Идентификатор кодека : XVID
Идентификатор кодека/Подсказка : XviD
Продолжительность : 37 м.
Битрейт : 1476 Кбит/сек
Ширина : 640 пикселей
Высота : 480 пикселей
Соотношение сторон : 4:3
Частота кадров : 25,000 кадров/сек
Цветовое пространство : YUV
Субдискретизация насыщенности : 4:2:0
Битовая глубина : 8 бит
Тип развёртки : Прогрессивная
Метод сжатия : С потерями
Бит/(Пиксели*Кадры) : 0.192
Размер потока : 398 Мбайт (91%)
Библиотека кодирования : XviD 65
Аудио
Идентификатор : 1
Формат : MPEG Audio
Версия формата : Version 1
Профиль формата : Layer 3
Идентификатор кодека : 55
Идентификатор кодека/Подсказка : MP3
Продолжительность : 37 м.
Вид битрейта : Постоянный
Битрейт : 128 Кбит/сек
Каналы : 2 канала
Частота : 48,0 КГц
Метод сжатия : С потерями
Размер потока : 34,5 Мбайт (8%)
Выравнивание : Соединение по промежуткам
Продолжительность промежутка : 40 мс. (1,00 видеокадр)
Время предзагрузки промежутка : 504 мс.
Библиотека кодирования : L3.99r
Настройки программы : -m s -V 4 -q 2 -lowpass 17 -b 128

MediaInfo 2

Общее
Полное имя : Zakoldovannyj.mal'chik.1955.DVDRip_[Youtracker]_by_AVP Studio.avi
Формат : AVI
Формат/Информация : Audio Video Interleave
Размер файла : 458 Мбайт
Продолжительность : 42 м.
Общий поток : 1495 Кбит/сек
Программа кодирования : VirtualDubMod 1.5.10.3 | www.virtualdub-fr.org || (build 2550/release)
Библиотека кодирования : VirtualDubMod build 2550/release
Видео
Идентификатор : 0
Формат : MPEG-4 Visual
Профиль формата : Advanced Simple@L5
Параметр BVOP формата : 1
Параметр QPel формата : Нет
Параметр GMC формата : Без точки перехода
Параметр матрицы формата : Выборочная
Идентификатор кодека : XVID
Идентификатор кодека/Подсказка : XviD
Продолжительность : 42 м.
Битрейт : 1357 Кбит/сек
Ширина : 640 пикселей
Высота : 480 пикселей
Соотношение сторон : 4:3
Частота кадров : 25,000 кадров/сек
Цветовое пространство : YUV
Субдискретизация насыщенности : 4:2:0
Битовая глубина : 8 бит
Тип развёртки : Прогрессивная
Метод сжатия : С потерями
Бит/(Пиксели*Кадры) : 0.177
Размер потока : 416 Мбайт (91%)
Библиотека кодирования : XviD 65
Аудио
Идентификатор : 1
Формат : MPEG Audio
Версия формата : Version 1
Профиль формата : Layer 3
Идентификатор кодека : 55
Идентификатор кодека/Подсказка : MP3
Продолжительность : 42 м.
Вид битрейта : Постоянный
Битрейт : 128 Кбит/сек
Каналы : 2 канала
Частота : 48,0 КГц
Метод сжатия : С потерями
Размер потока : 39,2 Мбайт (9%)
Выравнивание : Соединение по промежуткам
Продолжительность промежутка : 40 мс. (1,00 видеокадр)
Время предзагрузки промежутка : 504 мс.
Библиотека кодирования : L3.99r
Настройки программы : -m s -V 4 -q 2 -lowpass 17 -b 128

Скриншоты

Крупный план, Полная реставрация изображения и звука.
[Профиль] [ЛС]
Показать сообщения:    

Текущее время: Сегодня 03:23

Часовой пояс: GMT



Вы не можете начинать темы
Вы не можете отвечать на сообщения
Вы не можете редактировать свои сообщения
Вы не можете удалять свои сообщения
Вы не можете голосовать в опросах
Вы не можете прикреплять файлы к сообщениям
Вы не можете скачивать файлы