Чинти / Chinti (Наталья Мирзоян / Natalia Mirzoyan) [2011, анимационный фильм, WEBRip-AVC]

 
Автор Сообщение

TorrentFilm ®

Пол:

Стаж: 2 года

Сообщений: 7741



Награды: Нет

Торрент-статистика

Создавать темы 17-Дек-2014 02:15

[Цитировать]

Чинти / Chinti
Страна: Россия
Жанр: анимационный фильм
Продолжительность: 00:08:25
Год выпуска: 2011
Перевод: Не требуется
Русские субтитры: нет
Режиссёр: Наталья Мирзоян / Natalia Mirzoyan
Описание: Маленький, но упорный муравей, впечатлённый фотографией Тадж-Махала, посвящает свою жизнь строительству его копии из подручных средств.
Доп. информация: За необычный дизайн (все объекты созданы из разных сортов чая) фильм получил награду "Лучшее изобразительное решение" на фестивале в Суздале (2012).
Качество: WEBRip-AVC
Формат: MP4
Видео: 2054 kbps, 1024х576 (16:9), 25.000 fps, AVC (High@L3.1)
Аудио: 160 kbps, 48.0 kHz, 2 channels, AAC (LC)
Субтитры: отсутствуют

Подробные технические данные

GeneralComplete name : Чинти (2011).mp4Format : MPEG-4Format profile : Base Media / Version 2Codec ID : mp42File size : 134 MiBDuration : 8mn 25sOverall bit rate mode : VariableOverall bit rate : 2 218 KbpsEncoded date : UTC 2014-05-22 11:00:27Tagged date : UTC 2014-05-22 11:00:27
VideoID : 1Format : AVCFormat/Info : Advanced Video CodecFormat profile : High@L3.1Format settings, CABAC : YesFormat settings, ReFrames : 4 framesCodec ID : avc1Codec ID/Info : Advanced Video CodingDuration : 8mn 25sBit rate : 2 054 KbpsWidth : 1 024 pixelsHeight : 576 pixelsDisplay aspect ratio : 16:9Frame rate mode : ConstantFrame rate : 25.000 fpsColor space : YUVChroma subsampling : 4:2:0Bit depth : 8 bitsScan type : ProgressiveBits/(Pixel*Frame) : 0.139Stream size : 124 MiB (93%)Writing library : x264 core 142 r2409 d6b4e63Encoding settings : cabac=1 / ref=3 / deblock=1:0:0 / analyse=0x3:0x113 / me=hex / subme=7 / psy=1 / psy_rd=1.00:0.00 / mixed_ref=1 / me_range=16 / chroma_me=1 / trellis=1 / 8x8dct=1 / cqm=0 / deadzone=21,11 / fast_pskip=1 / chroma_qp_offset=-2 / threads=24 / lookahead_threads=4 / sliced_threads=0 / nr=0 / decimate=1 / interlaced=0 / bluray_compat=0 / stitchable=1 / constrained_intra=0 / bframes=3 / b_pyramid=2 / b_adapt=1 / b_bias=0 / direct=1 / weightb=1 / open_gop=0 / weightp=2 / keyint=75 / keyint_min=25 / scenecut=40 / intra_refresh=0 / rc_lookahead=40 / rc=crf / mbtree=1 / crf=20.0 / qcomp=0.60 / qpmin=5 / qpmax=69 / qpstep=4 / vbv_maxrate=3750 / vbv_bufsize=12500 / crf_max=0.0 / nal_hrd=none / filler=0 / ip_ratio=1.40 / aq=1:1.00Encoded date : UTC 2014-05-22 11:00:27Tagged date : UTC 2014-05-22 11:00:27
AudioID : 2Format : AACFormat/Info : Advanced Audio CodecFormat profile : LCCodec ID : 40Duration : 8mn 25sBit rate mode : VariableBit rate : 160 KbpsChannel(s) : 2 channelsChannel positions : Front: L RSampling rate : 48.0 KHzCompression mode : LossyStream size : 9.63 MiB (7%)Encoded date : UTC 2014-05-22 11:00:27Tagged date : UTC 2014-05-22 11:00:27

Скриншоты

[Профиль] [ЛС]
Кто просматривает тему:

Показать сообщения:    

Текущее время: Сегодня 14:49

Часовой пояс: GMT



Вы не можете начинать темы
Вы не можете отвечать на сообщения
Вы не можете редактировать свои сообщения
Вы не можете удалять свои сообщения
Вы не можете голосовать в опросах
Вы не можете прикреплять файлы к сообщениям
Вы не можете скачивать файлы