Чикаго / Chicago (2002) BDRemux 1080p | D, Р

 
Автор Сообщение

BOSS ®

Пол:

Стаж: 3 года 3 месяца

Сообщений: 9227

Откуда: ODESSA



Награды: 22 (Подробнее)

Top Keeper 2 (Количество: 1) Mega Releaser 1 (Количество: 1) Top Releaser 5 (Количество: 1)
Торрент-статистика

Создавать темы 12-Янв-2018 17:14

[Цитировать]

Информация о фильме
Название: Чикаго
Оригинальное название: Chicago
Год выхода: 2002
Жанр: мюзикл, комедия, криминал
Режиссер: Роб Маршалл
В ролях: Рене Зеллвегер, Кэтрин Зета-Джонс, Ричард Гир, Джон Си Райли, Куин Латифа, Кристин Барански, Тэй Диггз, Доминик Уэст, Люси Лью, Колм Фиор
О фильме:
Рокси Харт мечтает о песнях и танцах и о том, как сравняться с самой Велмой Келли, примадонной водевиля. И Рокси действительно оказывается с Велмой в одном положении, когда несколько очень неправильных шагов приводят обеих на скамью подсудимых.
В угрюмых стенах тюрьмы Рокси встречает легендарного адвоката Билли Флинна, который соглашается взяться за ее дело. Карьера Рокси резко идет вверх. Но хитроумная мисс Келли приготовила всем большой сюрприз «под занавес»…

Страна: США
Студия: Miramax Films
Продолжительность: 01:53:25
Перевод: Профессиональный (дублированный), профессиональный (многоголосый закадровый)-

MediaInfo:

General
Unique ID : 170624126615610942873931802281770158078 (0x805D02EF97B269999215E8D2849307FE)
Complete name : D:DEMUXЧикаго .Chicago.( 2002 ). Bdremux.(1080p).mkv
Format : Matroska
Format version : Version 4 / Version 2
File size : 24.7 GiB
Duration : 1h 53mn
Overall bit rate mode : Variable
Overall bit rate : 31.2 Mbps
Encoded date : UTC 2018-01-12 00:21:04
Writing application : mkvmerge v6.1.0 ('Old Devil') built on Mar 2 2013 14:32:37
Writing library : libebml v1.3.0 + libmatroska v1.4.0
Video
ID : 1
Format : AVC
Format/Info : Advanced Video Codec
Format profile : High@L4.1
Format settings, CABAC : Yes
Format settings, ReFrames : 3 frames
Codec ID : V_MPEG4/ISO/AVC
Duration : 1h 53mn
Bit rate mode : Variable
Bit rate : 24.4 Mbps
Maximum bit rate : 40.0 Mbps
Width : 1 920 pixels
Height : 1 080 pixels
Display aspect ratio : 16:9
Frame rate : 23.976 fps
Standard : NTSC
Color space : YUV
Chroma subsampling : 4:2:0
Bit depth : 8 bits
Scan type : Progressive
Bits/(Pixel*Frame) : 0.492
Stream size : 19.4 GiB (78%)
Language : English
Default : Yes
Forced : No
Color primaries : BT.709-5, BT.1361, IEC 61966-2-4, SMPTE RP177
Transfer characteristics : BT.709-5, BT.1361
Matrix coefficients : BT.709-5, BT.1361, IEC 61966-2-4 709, SMPTE RP177
Audio #1
ID : 2
Format : DTS
Format/Info : Digital Theater Systems
Codec ID : A_DTS
Duration : 1h 53mn
Bit rate mode : Constant
Bit rate : 755 Kbps
Channel(s) : 6 channels
Channel positions : Front: L C R, Side: L R, LFE
Sampling rate : 48.0 KHz
Bit depth : 24 bits
Compression mode : Lossy
Stream size : 612 MiB (2%)
Title : Профессиональный (полное дублирование)
Language : Russian
Default : Yes
Forced : No
Audio #2
ID : 3
Format : DTS
Format/Info : Digital Theater Systems
Codec ID : A_DTS
Duration : 1h 53mn
Bit rate mode : Constant
Bit rate : 1 510 Kbps
Channel(s) : 6 channels
Channel positions : Front: L C R, Side: L R, LFE
Sampling rate : 48.0 KHz
Bit depth : 24 bits
Compression mode : Lossy
Stream size : 1.20 GiB (5%)
Title : Профессиональный (многоголосный, закадровый) 1
Language : Russian
Default : No
Forced : No
Audio #3
ID : 4
Format : DTS
Format/Info : Digital Theater Systems
Format profile : MA / Core
Codec ID : A_DTS
Duration : 1h 53mn
Bit rate mode : Variable
Bit rate : 2 095 Kbps / 1 510 Kbps
Channel(s) : 6 channels
Channel positions : Front: L C R, Side: L R, LFE
Sampling rate : 48.0 KHz
Bit depth : 24 bits
Compression mode : Lossless / Lossy
Title : Профессиональный (многоголосный, закадровый) 2
Language : Russian
Default : No
Forced : No
Audio #4
ID : 5
Format : DTS
Format/Info : Digital Theater Systems
Format profile : MA / Core
Codec ID : A_DTS
Duration : 1h 53mn
Bit rate mode : Variable
Bit rate : 1 561 Kbps / 1 510 Kbps
Channel(s) : 6 channels
Channel positions : Front: L C R, Side: L R, LFE
Sampling rate : 48.0 KHz
Bit depth : 24 bits
Compression mode : Lossless / Lossy
Title : Оригинальный
Language : English
Default : No
Forced : No
Audio #5
ID : 6
Format : AC-3
Format/Info : Audio Coding 3
Mode extension : CM (complete main)
Codec ID : A_AC3
Duration : 1h 53mn
Bit rate mode : Constant
Bit rate : 192 Kbps
Channel(s) : 2 channels
Channel positions : Front: L R
Sampling rate : 48.0 KHz
Bit depth : 16 bits
Compression mode : Lossy
Stream size : 156 MiB (1%)
Title : Комментарии
Language : English
Default : No
Forced : No
Text #1
ID : 7
Format : UTF-8
Codec ID : S_TEXT/UTF8
Codec ID/Info : UTF-8 Plain Text
Title : На песни
Language : Russian
Default : No
Forced : No
Text #2
ID : 8
Format : UTF-8
Codec ID : S_TEXT/UTF8
Codec ID/Info : UTF-8 Plain Text
Language : Russian
Default : No
Forced : No
Text #3
ID : 9
Format : UTF-8
Codec ID : S_TEXT/UTF8
Codec ID/Info : UTF-8 Plain Text
Language : English
Default : No
Forced : No
Text #4
ID : 10
Format : UTF-8
Codec ID : S_TEXT/UTF8
Codec ID/Info : UTF-8 Plain Text
Language : English
Default : No
Forced : No
Menu
00:00:00.000 : en:And All That Jazz
00:07:07.427 : en:Killing Fred Casely
00:11:01.744 : en:Funny Honey
00:16:53.345 : en:When You're Good to Mama
00:23:00.295 : en:Cell Block Tango
00:30:41.422 : en:All I Care About
00:39:18.230 : en:Sweetest Little Jazz Killer
00:45:08.247 : en:We Both Reached for the Gun
00:50:55.886 : en:Roxie
00:57:39.372 : en:I Can't Do It Alone
01:03:51.619 : en:Go to Hell Kitty
01:09:30.583 : en:Mister Cellophane
01:14:18.954 : en:Flash in the Pan
01:18:06.848 : en:Razzle Dazzle
01:24:37.363 : en:Velma Takes the Stand
01:30:30.049 : en:A Tap Dance
01:33:36.068 : en:The Verdict
01:37:19.750 : en:Nowadays
01:41:31.794 : en:Hot Honey Rag
01:45:35.078 : en:End Credits
-Файл
Кодек: x.264
Качество: BDRemux 1080p.
Видео: MPEG-4 AVC, 40.0 Mбит/с, 1920x1080, 23.976 fps
Звук:
Аудио #01: Russian: 48 kHz, DTS 5.1, ~768 kbps |Дублированный|
Аудио #02: Russian: 48 kHz, DTS 5.1, ~1509 kbps |Многоголосый закадровый, с переводом песен|
Аудио #03: Russian: 48 kHz, DTS-HD Master 5.1, ~3883 kbps / 24-bit (DTS Core: 5.1 / 48 kHz / 1510 kbps / 24-bit)|Многоголосый закадровый, без перевода песен|
Аудио #04: English: 48 kHz, DTS-HD Master 5.1, ~3775 kbps / 24-bit (DTS Core: 5.1 / 48 kHz / 1510 kbps / 24-bit)
Аудио #05: English: 48 kHz, AC3, 2/0 (L,R) ch, ~192 kbps |Комментарии|
Субтитры: Русские (форс, полные), английские (полные - два типа)
Семпл

Скриншоты

[Профиль] [ЛС]
Кто просматривает тему:

Форум Тема Автор Размер
Программы [Разное] Чикаго ночной город Живые обои 1.0 [Android 2.3, RUS + ENG] TorrentFilm 9 MB
Зарубежные сериалы Медики Чикаго / Chicago Med / 1 сезон: 1-18 серии из 18 (Фред Бернер, Майкл Ваксман) [2015 г., Драма, медицина, WEB-DLRip] 720p E.S.P. 25.42 GB
Зарубежные сериалы Медики Чикаго / Chicago Med / 2 сезон: 1-23 серии из 23 (Фред Бернер, Майкл Ваксман) [2016 г., Драма, медицина, HDTVRip] 720p E.S.P. 17.69 GB
Зарубежные сериалы Медики Чикаго / Chicago Med [S01] (2015) HDTVRip 720p | Gears Media достали все 17.15 GB
Зарубежные сериалы Пожарные Чикаго / Чикаго в огне / Chicago Fire [03x01-05] (2014) WEB-DLRip от CasStudio | Шадинский Белочка 4.13 GB
Зарубежные сериалы Пожарные Чикаго / Чикаго в огне / Chicago Fire [03x01-06] (2014) WEB-DLRip от CasStudio | Шадинский Белочка 4.95 GB
Зарубежные сериалы Пожарные Чикаго / Чикаго в огне / Chicago Fire [03x01-07] (2014) WEB-DLRip от CasStudio | Шадинский Белочка 5.77 GB
Зарубежные сериалы Пожарные Чикаго / Чикаго в огне / Chicago Fire [03x01-08] (2014) WEB-DLRip от CasStudio | Шадинский Белочка 6.6 GB
Показать сообщения:    

Текущее время: Сегодня 07:48

Часовой пояс: GMT



Вы не можете начинать темы
Вы не можете отвечать на сообщения
Вы не можете редактировать свои сообщения
Вы не можете удалять свои сообщения
Вы не можете голосовать в опросах
Вы не можете прикреплять файлы к сообщениям
Вы не можете скачивать файлы