Чжун Куй: Снежная дева и тёмный кристалл / Zhong Kui Snow Girl and the Dark Crystal (2015) BDRip 1080р от SuperMin | L2

 
Автор Сообщение

Russian Mafia ®

Пол:

Стаж: 1 год 8 месяцев

Сообщений: 4256



Награды: 10 (Подробнее)

Top Releaser 3 (Количество: 1) Top Releaser 2 (Количество: 1) За внесенный вклад в развитие сайта (Количество: 1)
Торрент-статистика

Создавать темы 05-Апр-2016 06:52

[Цитировать]

Информация о фильме
Название: Чжун Куй: Снежная дева и тёмный кристалл
Оригинальное название: Zhong Kui Snow Girl and the Dark Crystal
Год выхода: 2015
Жанр: Фэнтези
Режиссер: Питер Пау, Чжао Тайню
В ролях: Чэнь Кунь, Ли Бинбин, Уинстон Чао, Бэйэр Бао, Джайк Цзюньи, Хуань Хуан, Вэньбо Ло, Иди Хоу, Maidina, Чжии Жэнь
О фильме:
Молодой человек Чжун Куй — в поздней китайской мифологии повелитель демонов, а к началу эпохи Тан Чжун Куй превратился из божества, оберегающего от злых сил, в божество, усмиряющее и истребляющее демонов — наделённый таинственными силами вынужден сражаться с духами Неба, Земли и Ада ради спасения своих соотечественников и любимой женщины…

Страна: Китай, Гонконг, США
Студия: Desen International Media, Enlight Pictures, K Pictures Co., Village Roadshow Pictures Asia, Warner Bros. (F.E.), Wu's Entertainment Co.
Продолжительность: 01:57:48
Перевод: Любительский (двухголосый закадровый)
Файл
Кодек: H.264
Качество: BDRip 1080р от SuperMin
Видео: 1920x800 (2.40:1), 7997 kbps, 23.976 fps
Звук: Русский (AC-3, 6ch, 448 kbps)
Субтитры: английские

MI

General
Unique ID : 226884758546605288527871213434582791696 (0xAAB06A402076BE5A95A7D42E93B6F610)
Complete name : F:ФИЛЬМЫЧжун.Куй-Снежная.дева.и.тёмный.кристалл.2015.x264.BDRip.1080p.DVO.mkv
Format : Matroska
Format version : Version 4 / Version 2
File size : 6.95 GiB
Duration : 1h 57mn
Overall bit rate : 8 447 Kbps
Movie name : Чжун Куй: Снежная дева и тёмный кристалл - #LORDKILL#
Encoded date : UTC 2016-04-04 15:07:37
Writing application : mkvmerge v8.3.0 ('Over the Horizon') 64bit
Writing library : libebml v1.3.1 + libmatroska v1.4.2
Video
ID : 1
Format : AVC
Format/Info : Advanced Video Codec
Format profile : High@L4
Format settings, CABAC : Yes
Format settings, ReFrames : 5 frames
Codec ID : V_MPEG4/ISO/AVC
Duration : 1h 57mn
Bit rate : 7 997 Kbps
Width : 1 920 pixels
Height : 800 pixels
Display aspect ratio : 2.40:1
Frame rate mode : Constant
Frame rate : 23.976 (24000/1001) fps
Color space : YUV
Chroma subsampling : 4:2:0
Bit depth : 8 bits
Scan type : Progressive
Bits/(Pixel*Frame) : 0.217
Stream size : 6.58 GiB (95%)
Default : Yes
Forced : No
Audio
ID : 2
Format : AC-3
Format/Info : Audio Coding 3
Mode extension : CM (complete main)
Format settings, Endianness : Big
Codec ID : A_AC3
Duration : 1h 57mn
Bit rate mode : Constant
Bit rate : 448 Kbps
Channel(s) : 6 channels
Channel positions : Front: L C R, Side: L R, LFE
Sampling rate : 48.0 KHz
Frame rate : 31.250 fps (1536 spf)
Compression mode : Lossy
Stream size : 377 MiB (5%)
Language : Russian
Default : Yes
Forced : No
Text
ID : 3
Format : UTF-8
Codec ID : S_TEXT/UTF8
Codec ID/Info : UTF-8 Plain Text
Duration : 1h 47mn
Bit rate : 29 bps
Count of elements : 699
Stream size : 23.6 KiB (0%)
Title : Forced
Language : English
Default : Yes
Forced : Yes
Menu
00:00:00.000 : en:00:00:00.000
00:07:21.750 : en:00:07:21.750
00:14:47.583 : en:00:14:47.583
00:24:51.333 : en:00:24:51.333
00:33:01.542 : en:00:33:01.542
00:41:41.458 : en:00:41:41.458
00:47:44.625 : en:00:47:44.625
00:55:15.833 : en:00:55:15.833
01:03:58.500 : en:01:03:58.500
01:15:14.542 : en:01:15:14.542
01:27:45.042 : en:01:27:45.042
01:36:38.792 : en:01:36:38.792
01:50:16.083 : en:01:50:16.083

Скриншоты

Скриншот исходника

[Профиль] [ЛС]
Кто просматривает тему:

Показать сообщения:    

Текущее время: Сегодня 04:21

Часовой пояс: GMT



Вы не можете начинать темы
Вы не можете отвечать на сообщения
Вы не можете редактировать свои сообщения
Вы не можете удалять свои сообщения
Вы не можете голосовать в опросах
Вы не можете прикреплять файлы к сообщениям
Вы не можете скачивать файлы