Чжун Куй: Снежная дева и тёмный кристалл / Zhong Kui fu mo: Xue yao mo ling (2015) BDRip 1080p от Ash61 | 3D-Video | halfOU | L2

 
Автор Сообщение

Russian Mafia ®

Пол:

Стаж: 1 год 8 месяцев

Сообщений: 4253



Награды: 10 (Подробнее)

Mega Seeder 4 (Количество: 1) За внесенный вклад в развитие сайта (Количество: 1) Mega Seeder 5 (Количество: 1)
Торрент-статистика

Создавать темы 27-Мар-2016 19:33

[Цитировать]

Чжун Куй: Снежная дева и тёмный кристалл
Zhong Kui fu mo: Xue yao mo ling
Zhong Kui: Snow Girl and the Dark Crystal
- Год выпуска: 2015
Страна: Китай, Гонконг, США (Desen International Media, Enlight Pictures, Wanda Media, Village Roadshow Pictures Asia, Warner Bros. Pictures, K. Pictures)
Жанр: Фэнтези, Приключения
Продолжительность: 01:57:50
Озвучка: Любительская двухголосая закадровая - GREEN TEA (Ольга Гринтиева, Дмитрий Познанский) [Перевод - Виктория Хеймдалль, редакция - Анна Окидзуке]
Режиссеры: Питер Пау, Чжао Тайню / Peter Pau, Zhao Tianyu-В ролях: Чэнь Кунь (Zhong Kui / Demon King), Ли Бинбин (Snow Girl / Little Snow), Уинстон Чао (Zhang Daoxian), Бэйэр Бао (Du Ping), Джайк Цзюньи (Yi Wei), Хуань Хуан (Nine-Tailed Fox), Вэньбо Ло (White Fox), Иди Хоу (Red Fox), Maidina (Yellow Fox), Чжии Жэнь (Green Snake), Xiangyi Ma (Demon Girl), Quniciren (Demon Girl), Anqi Liu (Demon Girl), Юнь Чэнь (Demon Girl), Питер Пау (God of Heaven)-Описание: Молодой человек Чжун Куй — в поздней китайской мифологии повелитель демонов, а к началу эпохи Тан Чжун Куй превратился из божества, оберегающего от злых сил, в божество, усмиряющее и истребляющее демонов — наделённый таинственными силами вынужден сражаться с духами Неба, Земли и Ада ради спасения своих соотечественников и любимой женщины…-Доп. инфо: Русская дорога получена вставкой блоков фраз с русской дороги в центральный канал оригинальной. СведЕние в 5.1 - Ash61.-Премьера (мир): 19 февраля 2015
Бюджет: $26 400 000
Кассовые сборы: $31 365 428


-Качество: BDRip (by Ash61)
Контейнер: MKV
Формат 3D: Half OverUnder / Вертикальная анаморфная стереопара
Порядок ракурсов: левый ракурс первый-Видео: AVC / 23,976 fps / 1920х1080p / 10.9 Mbps
Аудио:
#1 - Русский / AC3 / 48 KHz / 5.1 ch / 640 Kbps (DVO - Green Tea)
#2 - Китайский / AC3 / 48 KHz / 5.1 ch / 640 Kbps (Original - BD 3D)
Субтитры (SRT):
Вшитые (softsub):
#1 - Русские Форсированные на непереведённые фразы (включены по умолчанию)
#2 - English Full
Внешние (UTF-8):
#1 - Русские Форсированные на непереведённые фразы (включены по умолчанию)

MediaInfo

General
Unique ID : 215078441103199679160482579452912734670 (0xA1CE99DBE006FEF7868FA0CC7AA411CE)
Complete name : E:ZhongKui.SnowGirlAndTheDarkCrystal(2015)3D-halfOU(Ash61)DVOZhongKui.SnowGirlAndTheDarkCrystal(2015)3D-halfOU(Ash61)DVO.mkv
Format : Matroska
Format version : Version 2
File size : 10.2 GiB
Duration : 1h 57mn
Overall bit rate : 12.4 Mbps
Movie name : Чжун Куй: Снежная дева и тёмный кристалл / Zhong Kui fu mo: Xue yao mo ling / Zhong Kui: Snow Girl and the Dark Crystal (2015) в 3Д
Encoded date : UTC 2016-03-27 13:55:49
Writing application : mkvmerge v5.8.0 ('No Sleep / Pillow') built on Sep 2 2012 15:37:04
Writing library : libebml v1.2.3 + libmatroska v1.3.0
Video
ID : 1
Format : AVC
Format/Info : Advanced Video Codec
Format profile : High@L4.1
Format settings, CABAC : Yes
Format settings, ReFrames : 4 frames
Codec ID : V_MPEG4/ISO/AVC
Duration : 1h 57mn
Bit rate : 10.9 Mbps
Width : 1 920 pixels
Height : 1 080 pixels
Display aspect ratio : 16:9
Frame rate mode : Constant
Frame rate : 23.976 fps
Color space : YUV
Chroma subsampling : 4:2:0
Bit depth : 8 bits
Scan type : Progressive
Bits/(Pixel*Frame) : 0.219
Stream size : 8.98 GiB (88%)
Title : BDRip by Ash61
Writing library : x264 core 146 r2538 121396c
Encoding settings : cabac=1 / ref=4 / deblock=1:-3:-3 / analyse=0x3:0x113 / me=umh / subme=10 / psy=1 / psy_rd=1.00:0.00 / mixed_ref=1 / me_range=32 / chroma_me=1 / trellis=2 / 8x8dct=1 / cqm=0 / deadzone=21,11 / fast_pskip=1 / chroma_qp_offset=-2 / threads=12 / lookahead_threads=2 / sliced_threads=0 / nr=0 / decimate=1 / interlaced=0 / bluray_compat=0 / constrained_intra=0 / bframes=9 / b_pyramid=2 / b_adapt=2 / b_bias=0 / direct=3 / weightb=1 / open_gop=0 / weightp=2 / keyint=250 / keyint_min=23 / scenecut=40 / intra_refresh=0 / rc_lookahead=60 / rc=crf / mbtree=1 / crf=15.5 / qcomp=0.70 / qpmin=0 / qpmax=69 / qpstep=4 / vbv_maxrate=40000 / vbv_bufsize=30000 / crf_max=0.0 / nal_hrd=none / filler=0 / frame-packing=4 / ip_ratio=1.40 / aq=1:0.70
Language : Chinese
Default : Yes
Forced : No
Audio #1
ID : 2
Format : AC-3
Format/Info : Audio Coding 3
Mode extension : CM (complete main)
Format settings, Endianness : Big
Codec ID : A_AC3
Duration : 1h 57mn
Bit rate mode : Constant
Bit rate : 640 Kbps
Channel(s) : 6 channels
Channel positions : Front: L C R, Side: L R, LFE
Sampling rate : 48.0 KHz
Bit depth : 16 bits
Compression mode : Lossy
Stream size : 539 MiB (5%)
Title : Двухголосый закадровый - GreenTea (сведЕние в 5.1 - Ash61)
Language : Russian
Default : Yes
Forced : No
Audio #2
ID : 3
Format : AC-3
Format/Info : Audio Coding 3
Mode extension : CM (complete main)
Format settings, Endianness : Big
Codec ID : A_AC3
Duration : 1h 57mn
Bit rate mode : Constant
Bit rate : 640 Kbps
Channel(s) : 6 channels
Channel positions : Front: L C R, Side: L R, LFE
Sampling rate : 48.0 KHz
Bit depth : 16 bits
Compression mode : Lossy
Stream size : 539 MiB (5%)
Title : Original - BD 3D
Language : Chinese
Default : No
Forced : No
Text #1
ID : 4
Format : UTF-8
Codec ID : S_TEXT/UTF8
Codec ID/Info : UTF-8 Plain Text
Title : Форсированные (на непереведённые фразы)
Language : Russian
Default : Yes
Forced : No
Text #2
ID : 5
Format : UTF-8
Codec ID : S_TEXT/UTF8
Codec ID/Info : UTF-8 Plain Text
Title : Full - BD 3D
Language : English
Default : No
Forced : No
Menu
00:00:00.000 : :1
00:05:00.000 : :2
00:10:00.000 : :3
00:15:00.000 : :4
00:20:00.000 : :5
00:25:00.000 : :6
00:30:00.000 : :7
00:35:00.000 : :8
00:40:00.000 : :9
00:45:00.000 : :10
00:50:00.000 : :11
00:55:00.000 : :12
01:00:00.000 : :13
01:05:00.000 : :14
01:10:00.000 : :15
01:15:00.000 : :16
01:20:00.000 : :17
01:25:00.000 : :18
01:30:00.000 : :19
01:35:00.000 : :20
01:40:00.000 : :21
01:45:00.000 : :22
01:50:00.000 : :23
01:55:00.000 : :24

Для оценки 3Д - Анимированные скрины




















[Профиль] [ЛС]
Кто просматривает тему:

Показать сообщения:    

Текущее время: Сегодня 18:57

Часовой пояс: GMT



Вы не можете начинать темы
Вы не можете отвечать на сообщения
Вы не можете редактировать свои сообщения
Вы не можете удалять свои сообщения
Вы не можете голосовать в опросах
Вы не можете прикреплять файлы к сообщениям
Вы не можете скачивать файлы