Четвёртый вид / The Fourth Kind (Олатунде Осунсанми / Olatunde Osunsanmi) [2009, США, Великобритания, ужасы, фантастика, триллер, детектив, BDRip] Dub

 
Автор Сообщение

painkiller ®

Стаж: 2 года 3 месяца

Сообщений: 582



Награды: Нет

Торрент-статистика

Создавать темы 14-Авг-2014 09:12

[Цитировать]

Четвёртый вид / The Fourth Kind-«There are four kinds of alien encounters. The fourth kind is abduction» -Страна: США, Великобритания
Студия: Universal Pictures, Gold Circle Films, Chambara Pictures
Жанр: ужасы, фантастика, триллер, детектив
Год выпуска: 2009
Продолжительность: 01:38:00
Перевод: Профессиональный (дублированный) | Лицензия |
Cубтитры: нет-Режиссер: Олатунде Осунсанми / Olatunde Osunsanmi
В ролях: Милла Йовович, Уилл Пэттон, Хаким Кае-Казим, Кори Джонсон, Энцо Чиленти, Элиас Котеас, Эрик Лорен, Мия МакКенна-Брюс, Рафаэль Коулмэн, Дафна Александр
Описание: На территории Аляски происходят необъяснимые исчезновения людей. Несмотря на все усилия ФБР, расследования зашли в тупик, и тайна, по-прежнему, не раскрыта. Психиатр Эбигейл Тайлер начинает записывать на видео беседы со своими пациентами и обнаруживает нечто очень страшное и пугающе…-Автор рипа: _Flash- -Качество видео: BDRip | The.Fourth.Kind.2009.D.P.Rus.Eng.BDRemux |
Формат видео: AVI
Видео: XviD 73, 720x304, 23,976 fps, 1671 Кbps, 0.320 bit/pixel
Аудио: 48 kHz, AC3 Dolby Digital, 3/2 (L,C,R,l,r) + LFE ch, 448.00 kbps
-

Дополнительно о фильме:

Производство, студия дубляжа, прокат:

Знаете ли вы, что...

MediaInfo

General
Complete name : D:\The.Fourth.Kind.2009.By_Flash.avi
Format : AVI
Format/Info : Audio Video Interleave
File size : 1.46 GiB
Duration : 1h 38mn
Overall bit rate : 2 128 Kbps
Writing application : VirtualDubMod 1.5.10.3 | www.virtualdub-fr.org || (build 2550/release)
Writing library : VirtualDubMod build 2550/release
Video
ID : 0
Format : MPEG-4 Visual
Format profile : Advanced Simple@L5
Format settings, BVOP : 1
Format settings, QPel : No
Format settings, GMC : No warppoints
Format settings, Matrix : Custom
Codec ID : XVID
Codec ID/Hint : XviD
Duration : 1h 38mn
Bit rate : 1 671 Kbps
Width : 720 pixels
Height : 304 pixels
Display aspect ratio : 2.35:1
Frame rate : 23.976 fps
Color space : YUV
Chroma subsampling : 4:2:0
Bit depth : 8 bits
Scan type : Progressive
Compression mode : Lossy
Bits/(Pixel*Frame) : 0.318
Stream size : 1.14 GiB (79%)
Writing library : XviD 73
Audio
ID : 1
Format : AC-3
Format/Info : Audio Coding 3
Mode extension : CM (complete main)
Format settings, Endianness : Big
Codec ID : 2000
Duration : 1h 37mn
Bit rate mode : Constant
Bit rate : 448 Kbps
Channel(s) : 6 channels
Channel positions : Front: L C R, Side: L R, LFE
Sampling rate : 48.0 KHz
Bit depth : 16 bits
Compression mode : Lossy
Stream size : 314 MiB (21%)
Alignment : Split accross interleaves
Interleave, duration : 42 ms (1.00 video frame)
Interleave, preload duration : 500 ms

Скриншоты

[Профиль] [ЛС]

Создавать темы 06-Авг-2015 23:15 (спустя 11 месяцев 23 дня)

Топик был перенесен из форума Фильмы до 2014 года в форум Фильмы до 2012 года
sergej644
 

Создавать темы 12-Июн-2016 08:48 (спустя 1 год 9 месяцев)

Топик был перенесен из форума Фильмы 2011 года в форум Фильмы 2009 года
Russian Mafia
 
Кто просматривает тему:

Форум Тема Автор Размер
XXXI Летние Олимпийские игры. Рио-де-Жанейро 2016 (Бразилия) XXXI Летние Олимпийские Игры. Рио-де-Жанейро (Бразилия). Легкая атлетика. Четвертый день. Вечер [15.08] (2016) HDTV 1080i ODESSA 17.85 GB
XXXI Летние Олимпийские игры. Рио-де-Жанейро 2016 (Бразилия) XXXI Летние Олимпийские Игры. Рио-де-Жанейро (Бразилия). Легкая атлетика. Четвертый день. Утро [15.08] (2016) HDTV 1080i BOSS 14.28 GB
Фильмы (HD Rips | 720p, 1080p) Без четверти два до нашей эры / Deux heures moins le quart avant Jesus-Christ (1982) BDRip 1080p by msltel | P sergej644 10.21 GB
Фильмы (HD Rips | 720p, 1080p) Бэйб: Четвероногий малыш / Babe (1995) BDRip 1080p Russian Mafia 7.95 GB
ТВ - Шоу КВН - 2015. Высшая лига. Четвертая игра [19.04] (2015) HDTVRip от GeneralFilm достали все 1.74 GB
ТВ - Шоу КВН-2016. Высшая лига. Второй четвертьфинал (эфир от 17.04.) (2016) SATRip BOSS 1.52 GB
О войнах, армии и оружии Первая мировая (10 серий из 10) (Олег Четвериков) [2015, Документальный, война, история, SATRip] sergej644 4.91 GB
Фильмы (HD Rips | 720p, 1080p) После Валькирии: Рассвет четвертого Рейха / Beyond Valkyrie: Dawn of the 4th Reich (2016) WEB-DL 1080p | iTunes достали все 4.24 GB
Показать сообщения:    

Текущее время: Сегодня 20:27

Часовой пояс: GMT



Вы не можете начинать темы
Вы не можете отвечать на сообщения
Вы не можете редактировать свои сообщения
Вы не можете удалять свои сообщения
Вы не можете голосовать в опросах
Вы не можете прикреплять файлы к сообщениям
Вы не можете скачивать файлы