Четверо 3 в 3Д / Si da ming bu 3 / The Four 3 in 3D (Гордон Чан / Gordon Chan) [2014, Боевик, Фэнтези, BDrip-AVC] DVO, Half OverUnder / Вертикальная анаморфная стереопара

 
Автор Сообщение

TorrentFilm ®

Пол:

Стаж: 1 год 11 месяцев

Сообщений: 7741



Награды: Нет

Торрент-статистика

Создавать темы 13-Авг-2015 00:06

[Цитировать]

Четверо 3
Si da ming bu 3
The Four 3

Год выпуска: 2014
Страна: Китай, Гонконг (My Way Film, Honger Music Venture, H.K. Screen Art, Enlight Pictures)
Жанр: Боевик, Фэнтези
Продолжительность: 01:46:38
Перевод: Любительский двухголосый закадровый - GREEN TEA (Дмитрий Познанский и Ольга Гринтиева) (Перевод - Виктория Широкова)
Режиссер: Гордон Чан / Gordon Chan-В ролях: Рональд Чэн, Колин Чоу, Чао Ден, Лю Ифэй, Энтони Вонг Чау Санг, Сиобо Ву, Вайсэ Лээ, Алек Су, Янь Лю, Цзян Иянь, Чэн-Хой Ю-Описание: Новое дело для четырех констеблей из Небесной Полиции — Жизнекрад, Хладнокровный, Железнорукий и Бесстрастная берутся за расследование.-Премьера (мир): 21 августа 2014
. .
-Качество: BDRip (by Ash61)
Контейнер: MKV
Формат 3D: Half OverUnder / Вертикальная анаморфная стереопара
Порядок ракурсов: левый ракурс первый-Видео: AVC / 23,976 fps / 1920х1080p / 15.0 Mbps
Аудио:
#1 - Русский / AC3 / 48 KHz / 5.1 ch / 640 Kbps (DVO - Green Tea) [сведЕние в 5.1 - Ash61]
#2 - Китайский / AC3 / 48 KHz / 5.1 ch / 640 Kbps (Original - BD 3D)
Субтитры Отсутствуют

MediaInfo

General
Unique ID : 215603331049515736944245498355748456254 (0xA233B0EE67FBA371B8EFF15F8714473E)
Complete name : E:\TheFour3(2014)3D-halfOU(Ash61)VO-5.1.mkv
Format : Matroska
Format version : Version 2
File size : 12.4 GiB
Duration : 1h 46mn
Overall bit rate : 16.7 Mbps
Movie name : Четверо 3 / Si Da Ming Bu 3 / The Four 3 (2014) в 3Д
Encoded date : UTC 2015-07-03 19:53:41
Writing application : mkvmerge v5.8.0 ('No Sleep / Pillow') built on Sep 2 2012 15:37:04
Writing library : libebml v1.2.3 + libmatroska v1.3.0
Video
ID : 1
Format : AVC
Format/Info : Advanced Video Codec
Format profile : High@L4.1
Format settings, CABAC : Yes
Format settings, ReFrames : 4 frames
Codec ID : V_MPEG4/ISO/AVC
Duration : 1h 46mn
Bit rate : 15.0 Mbps
Width : 1 920 pixels
Height : 1 080 pixels
Display aspect ratio : 16:9
Frame rate mode : Constant
Frame rate : 23.976 fps
Color space : YUV
Chroma subsampling : 4:2:0
Bit depth : 8 bits
Scan type : Progressive
Bits/(Pixel*Frame) : 0.303
Stream size : 11.2 GiB (90%)
Title : BDRip by Ash61
Writing library : x264 core 138 r2358 9e941d1
Encoding settings : cabac=1 / ref=4 / deblock=1:-3:-3 / analyse=0x3:0x113 / me=umh / subme=10 / psy=1 / psy_rd=1.00:0.00 / mixed_ref=1 / me_range=32 / chroma_me=1 / trellis=2 / 8x8dct=1 / cqm=0 / deadzone=21,11 / fast_pskip=1 / chroma_qp_offset=-2 / threads=12 / lookahead_threads=3 / sliced_threads=0 / nr=0 / decimate=1 / interlaced=0 / bluray_compat=0 / constrained_intra=0 / bframes=11 / b_pyramid=2 / b_adapt=2 / b_bias=0 / direct=3 / weightb=1 / open_gop=0 / weightp=2 / keyint=250 / keyint_min=23 / scenecut=40 / intra_refresh=0 / rc_lookahead=60 / rc=crf / mbtree=1 / crf=16.5 / qcomp=0.70 / qpmin=10 / qpmax=51 / qpstep=4 / vbv_maxrate=40000 / vbv_bufsize=30000 / crf_max=0.0 / nal_hrd=none / frame-packing=4 / ip_ratio=1.40 / aq=1:0.70
Language : Chinese
Default : Yes
Forced : No
Audio #1
ID : 2
Format : AC-3
Format/Info : Audio Coding 3
Mode extension : CM (complete main)
Format settings, Endianness : Big
Codec ID : A_AC3
Duration : 1h 46mn
Bit rate mode : Constant
Bit rate : 640 Kbps
Channel(s) : 6 channels
Channel positions : Front: L C R, Side: L R, LFE
Sampling rate : 48.0 KHz
Bit depth : 16 bits
Compression mode : Lossy
Stream size : 488 MiB (4%)
Title : Одноголосый закадровый - GreenTea (сведЕние в 5.1 - Ash61)
Language : Russian
Default : Yes
Forced : No
Audio #2
ID : 3
Format : AC-3
Format/Info : Audio Coding 3
Mode extension : CM (complete main)
Format settings, Endianness : Big
Codec ID : A_AC3
Duration : 1h 46mn
Bit rate mode : Constant
Bit rate : 640 Kbps
Channel(s) : 6 channels
Channel positions : Front: L C R, Side: L R, LFE
Sampling rate : 48.0 KHz
Bit depth : 16 bits
Compression mode : Lossy
Stream size : 488 MiB (4%)
Title : Original - BD 3D
Language : Chinese
Default : No
Forced : No
Menu
00:00:00.000 : :1
00:07:00.461 : :2
00:20:39.946 : :3
00:27:47.790 : :4
00:35:24.038 : :5
00:44:45.724 : :6
00:52:07.414 : :7
01:03:12.288 : :8
01:09:05.140 : :9
01:18:30.037 : :10
01:29:23.858 : :11
01:36:59.104 : :12

Для оценки 3Д - Анимированные скрины















[Профиль] [ЛС]
Кто просматривает тему:

Форум Тема Автор Размер
XXXI Летние Олимпийские игры. Рио-де-Жанейро 2016 (Бразилия) XXXI Летние Олимпийские Игры. Рио-де-Жанейро (Бразилия). Легкая атлетика. Четвертый день. Вечер [15.08] (2016) HDTV 1080i ODESSA 17.85 GB
XXXI Летние Олимпийские игры. Рио-де-Жанейро 2016 (Бразилия) XXXI Летние Олимпийские Игры. Рио-де-Жанейро (Бразилия). Легкая атлетика. Четвертый день. Утро [15.08] (2016) HDTV 1080i BOSS 14.28 GB
Фильмы (HD Rips | 720p, 1080p) Без четверти два до нашей эры / Deux heures moins le quart avant Jesus-Christ (1982) BDRip 1080p by msltel | P sergej644 10.21 GB
Фильмы (HD Rips | 720p, 1080p) Бэйб: Четвероногий малыш / Babe (1995) BDRip 1080p Russian Mafia 7.95 GB
ТВ - Шоу КВН - 2015. Высшая лига. Четвертая игра [19.04] (2015) HDTVRip от GeneralFilm достали все 1.74 GB
ТВ - Шоу КВН-2016. Высшая лига. Второй четвертьфинал (эфир от 17.04.) (2016) SATRip BOSS 1.52 GB
О войнах, армии и оружии Первая мировая (10 серий из 10) (Олег Четвериков) [2015, Документальный, война, история, SATRip] sergej644 4.91 GB
Фильмы (HD Rips | 720p, 1080p) После Валькирии: Рассвет четвертого Рейха / Beyond Valkyrie: Dawn of the 4th Reich (2016) WEB-DL 1080p | iTunes достали все 4.24 GB
Показать сообщения:    

Текущее время: Сегодня 15:58

Часовой пояс: GMT



Вы не можете начинать темы
Вы не можете отвечать на сообщения
Вы не можете редактировать свои сообщения
Вы не можете удалять свои сообщения
Вы не можете голосовать в опросах
Вы не можете прикреплять файлы к сообщениям
Вы не можете скачивать файлы