Четверг, 12-е (Сергей Попов) [2012, Россия, мелодрама, DVD5] R5 Original Rus

 
Автор Сообщение

TorrentFilm ®

Пол:

Стаж: 2 года

Сообщений: 7741



Награды: Нет

Торрент-статистика

Создавать темы 03-Янв-2016 00:06

[Цитировать]

-Четверг, 12-е -Страна: Россия
Студия: Всемирные Русские Студии
Жанр: мелодрама
Год выпуска: 2012
Мировая премьера: 16 декабря 2012
Российская премьера: 16 декабря 2012
Украинская премьера: 16 декабря 2012
Дата выхода DVD: 27 июня 2013, «Русское счастье»
Продолжительность: 01:24:10
Перевод: Оригинал [Лицензия]
Cубтитры: нет
Оригинальная аудиодорожка: русский-Режиссер: Сергей Попов-В ролях: Ирина Гринёва, Тарас Бибич, Евгения Дмитриева, Анна Уколова, Наталья Рогожкина, Дмитрий Ульянов, Вадим Колганов, Тимофей Трибунцев, Илья Рутберг, Юлия Рутберг-Описание: Ночной звонок резко меняет жизнь Юлии Битовой. Незнакомка сообщает, что беременна от мужа Юлии — Вадима. Муж утверждает, что это просто чей-то дурацкий розыгрыш, но Юля не верит ему. После очередного вранья Вадима и звонка девушки, Юля выгоняет супруга из дома. Однако, она продолжает любить его. Юля растеряна и просит помощи у своих подруг.
Коллективно принимается решение кардинально поменять имидж Юлии, а также попытаться вызвать у неверного супруга ревность. Для этого одна из подруг направляет к Юлии своего хорошего знакомого. Однако, по недоразумению, Юлия принимает за участника плана совершенно постороннего человека — Антона.
Антон приехал в город в командировку. Ему сразу понравилась Юлия. А Юля поражена тем, что Антон, как никто другой понимает ее. Однако, Юля не готова резко поменять свою жизнь. Тем более, что неверный муж просит дать ему еще один шанс, а звонки незнакомки действительно оказываются простым недоразумением. Но сможет ли теперь Юля жить, как прежде?
-Бонусы: нет- -Качество: DVD5 R5
Формат: DVD-Video
Видео кодек: MPEG2
Аудио кодек: AC3
Видео: PAL 16:9 (720x576(0.506)) MPEG Video, 25,000 кадр/сек, 5244 Кбит/сек
Аудио #1: Russian (Dolby AC3, 2 ch) 192 Кбит/сек, 48,0 КГц
Аудио #2: Russian (Dolby AC3, 6 ch) 448 Кбит/сек, 48,0 КГц--

DVDInfo

Title: Chetverg.12e.2012.DVD5
Size: 3.54 Gb ( 3 706 780,00 KBytes ) - DVD-5
Enabled regions: 1, 2, 3, 4, 5, 6, 7, 8
VTS_01 :
Play Length: 01:24:10
Video: PAL 16:9 (720x576) VBR, Auto Letterboxed
Audio:
English (Dolby AC3, 2 ch)
English (Dolby AC3, 6 ch)
* Menus Information *
VIDEO_TS Menu
Video:
PAL 16:9 (720x576) VBR
Auto Letterboxed
English Language Unit :
Title Menu
VTS_01 Menu
Video:
PAL 16:9 (720x576) VBR
Auto Letterboxed
Audio:
Not specified (Dolby AC3, 2 ch)
English Language Unit :
Root Menu

MediaInfo

Общее
Полное имя : K:\Новинки 2013\Chetverg.12e.2012.DVD5\VIDEO_TS\VTS_01_2.VOB
Формат : MPEG-PS
Размер файла : 1000 Мбайт
Продолжительность : 23 м.
Режим общего битрейта : Переменный
Общий поток : 6004 Кбит/сек
Видео
Идентификатор : 224 (0xE0)
Формат : MPEG Video
Версия формата : Version 2
Профиль формата : Main@Main
Параметр BVOP формата : Да
Параметр матрицы формата : Выборочная
Параметр GOP формата : Variable
Продолжительность : 23 м.
Вид битрейта : Переменный
Битрейт : 5244 Кбит/сек
Максимальный битрейт : 8100 Кбит/сек
Ширина : 720 пикселей
Высота : 576 пикселей
Соотношение сторон : 16:9
Частота кадров : 25,000 кадров/сек
Стандарт вещания : PAL
Цветовое пространство : YUV
Субдискретизация насыщенности : 4:2:0
Битовая глубина : 8 бит
Тип развёртки : Прогрессивная
Метод сжатия : С потерями
Бит/(Пиксели*Кадры) : 0.506
Временной код первого кадра : 00:24:01:07
Оригинал временного кода : Group of pictures header
Размер потока : 874 Мбайт (87%)
Аудио #1
Идентификатор : 189 (0xBD)-128 (0x80)
Формат : AC-3
Формат/Информация : Audio Coding 3
Расширение режима : CM (complete main)
Параметр Endianness формата : Big
Режим смешивания : DVD-Video
Продолжительность : 23 м.
Вид битрейта : Постоянный
Битрейт : 192 Кбит/сек
Каналы : 2 канала
Расположение каналов : Front: L R
Частота : 48,0 КГц
Битовая глубина : 16 бит
Метод сжатия : С потерями
Задержка видео : -240 мс.
Размер потока : 32,0 Мбайт (3%)
Аудио #2
Идентификатор : 189 (0xBD)-129 (0x81)
Формат : AC-3
Формат/Информация : Audio Coding 3
Расширение режима : CM (complete main)
Параметр Endianness формата : Big
Режим смешивания : DVD-Video
Продолжительность : 23 м.
Вид битрейта : Постоянный
Битрейт : 448 Кбит/сек
Каналы : 6 каналов
Расположение каналов : Front: L C R, Side: L R, LFE
Частота : 48,0 КГц
Битовая глубина : 16 бит
Метод сжатия : С потерями
Задержка видео : -304 мс.
Размер потока : 74,6 Мбайт (7%)

Скриншоты меню

Скриншоты фильма


-
-Раздача от группы:
[Профиль] [ЛС]
Кто просматривает тему:

Форум Тема Автор Размер
XXXI Летние Олимпийские игры. Рио-де-Жанейро 2016 (Бразилия) XXXI Летние Олимпийские Игры. Рио-де-Жанейро (Бразилия). Легкая атлетика. Четвертый день. Вечер [15.08] (2016) HDTV 1080i ODESSA 17.85 GB
XXXI Летние Олимпийские игры. Рио-де-Жанейро 2016 (Бразилия) XXXI Летние Олимпийские Игры. Рио-де-Жанейро (Бразилия). Легкая атлетика. Четвертый день. Утро [15.08] (2016) HDTV 1080i BOSS 14.28 GB
Фильмы (HD Rips | 720p, 1080p) Без четверти два до нашей эры / Deux heures moins le quart avant Jesus-Christ (1982) BDRip 1080p by msltel | P sergej644 10.21 GB
Фильмы (HD Rips | 720p, 1080p) Бэйб: Четвероногий малыш / Babe (1995) BDRip 1080p Russian Mafia 7.95 GB
ТВ - Шоу КВН - 2015. Высшая лига. Четвертая игра [19.04] (2015) HDTVRip от GeneralFilm достали все 1.74 GB
ТВ - Шоу КВН-2016. Высшая лига. Второй четвертьфинал (эфир от 17.04.) (2016) SATRip BOSS 1.52 GB
О войнах, армии и оружии Первая мировая (10 серий из 10) (Олег Четвериков) [2015, Документальный, война, история, SATRip] sergej644 4.91 GB
Фильмы (HD Rips | 720p, 1080p) После Валькирии: Рассвет четвертого Рейха / Beyond Valkyrie: Dawn of the 4th Reich (2016) WEB-DL 1080p | iTunes достали все 4.24 GB
Показать сообщения:    

Текущее время: Сегодня 04:18

Часовой пояс: GMT



Вы не можете начинать темы
Вы не можете отвечать на сообщения
Вы не можете редактировать свои сообщения
Вы не можете удалять свои сообщения
Вы не можете голосовать в опросах
Вы не можете прикреплять файлы к сообщениям
Вы не можете скачивать файлы