Честь / Honor (Хаим Бузагло / Haim Bouzaglo) [2010, Израиль, Триллер, драма, криминал, DVDRip] Sub Rus + Original Heb

 
Автор Сообщение

reversefile ®

Пол:

Стаж: 4 года 5 месяцев

Сообщений: 842

Откуда: ReverseFile.org



Награды: Нет

Торрент-статистика

Создавать темы 13-Авг-2014 10:03

[Цитировать]

Честь / Honor / Kavod
Страна: Израиль
Жанр: Триллер, драма, криминал
Год выпуска: 2010
Продолжительность: 01:58:17
Перевод: Субтитры
Cубтитры: русские
Оригинальная аудиодорожка: иврит
Режиссер: Хаим Бузагло / Haim Bouzaglo
В ролях: Моран Атиас, Натали Атия, Ичо Авитал, Шмиль Бен Ари, Итай Бузагло, Ширли Бренер, Алон Даан, Сами Хёри, Альберт Илуз, Смадар Килчински
Описание: После многолетней кровавой вражды главы двух мафиозных семей - Марциано и Бардуго, понимая, что продолжение войны грозит полным уничтожением, решают примириться. Но, члены их семей не готовы к мирному сосуществованию с врагами. Они воспитаны в убеждении, что война - дело чести.
Доп. информация: КиноПоиск, IMDb
Сэмпл: https://www.mediafire.com/?tbs4zr0vykd7wtw
Качество видео: DVDRip
Формат видео: AVI
Видео: Xvid 688х400 25 кадров/сек 1181 Кбит/сек
Аудио: AC-3 48 КГц 6 каналов 448 Кбит/сек
Формат субтитров: softsub (SRT)

Образец субтитров

499
00:55:21,927 --> 00:55:26,876
- Что ж, бутылки прибыли. Приготовьте всё,
чтобы ночью завести на склад. - Окей.
500
00:55:27,687 --> 00:55:33,319
- Я пока не понял, где материал.
- Смотри, кокаин получаем жидким, как вода.
501
00:55:33,527 --> 00:55:36,837
Теперь мы берём его в лабораторию,
переливаем из бутылок,
502
00:55:37,127 --> 00:55:41,962
высушиваем, и получаем чистый кокаин. Понял?
503
00:55:44,687 --> 00:55:48,805
Только, знай, я рискую.
504
00:55:49,527 --> 00:55:53,202
Мой отец не любит возиться
с наркотиками. Это - грязное дело.
505
00:55:53,487 --> 00:55:56,524
Смотри, деньги не пахнут.
Ты получил хорошие деньги.
506
00:55:56,927 --> 00:56:02,763
И, кроме того, не всё ли равно, -
продавать наркотики или азартные игры?
507
00:56:02,927 --> 00:56:07,045
- И отец твой занимается грязными делами.
- Не трогай моего отца.
508
00:57:02,287 --> 00:57:03,242
Добрый вечер.
509
00:57:04,527 --> 00:57:06,518
Говори и быстро. Я понял тебя утром.
510
00:57:06,647 --> 00:57:10,322
- Что ты ищешь здесь, а?
- Даниэль, речь идёт о больших деньгах.
511
00:57:10,807 --> 00:57:13,605
Речь идёт о миллионах.
Можно поделиться.
512
00:57:13,767 --> 00:57:18,124
- Сделка с кем?
- Эти бутылки с жидким кокаином.
513
00:57:18,567 --> 00:57:23,118
- Фарес и его ребята придут сюда через несколько минут.
- Ты заключил сделку с арабами, говори, а?
514
00:57:23,567 --> 00:57:25,000
Ты не нормальный!
515
00:57:25,527 --> 00:57:28,997
Мы не прикасаемся к наркотикам.
Ты завалишь всех нас, придурок!
516
00:57:30,927 --> 00:57:32,121
Идите со мной.
517
00:57:54,807 --> 00:57:56,479
Давай, Зерах, быстрее.
518
00:58:16,207 --> 00:58:17,879
Давай, давай.
519
00:58:21,807 --> 00:58:23,684
Давай, передавай ему по две.
520
00:58:25,007 --> 00:58:26,963
Ну, просыпайся!
521
00:58:31,327 --> 00:58:34,399
Всё из-за тебя. Ну, ну, давай!

MediaInfo

Общее
Полное имя : Honor (Kavod) 2010.avi
Формат : AVI
Формат/Информация : Audio Video Interleave
Размер файла : 1,35 Гбайт
Продолжительность : 1 ч. 58 м.
Общий поток : 1639 Кбит/сек
Программа кодирования : VirtualDubMod 1.5.4.1 (build 2178/release)
Библиотека кодирования : VirtualDub build 27021/release
Видео
Идентификатор : 0
Формат : MPEG-4 Visual
Профиль формата : Advanced Simple@L5
Параметр BVOP формата : 1
Параметр QPel формата : Нет
Параметр GMC формата : Без точки перехода
Параметр матрицы формата : Выборочная
Идентификатор кодека : XVID
Идентификатор кодека/Подсказка : XviD
Продолжительность : 1 ч. 58 м.
Битрейт : 1181 Кбит/сек
Ширина : 688 пикселей
Высота : 400 пикселей
Соотношение сторон : 1,720
Частота кадров : 25,000 кадров/сек
Цветовое пространство : YUV
Субдискретизация насыщенности : 4:2:0
Битовая глубина : 8 бит
Тип развёртки : Прогрессивная
Метод сжатия : С потерями
Бит/(Пиксели*Кадры) : 0.172
Размер потока : 999 Мбайт (72%)
Библиотека кодирования : XviD 1.2.1 (UTC 2008-12-04)
Аудио
Идентификатор : 1
Формат : AC-3
Формат/Информация : Audio Coding 3
Расширение режима : CM (complete main)
Параметр Endianness формата : Big
Идентификатор кодека : 2000
Продолжительность : 1 ч. 58 м.
Вид битрейта : Постоянный
Битрейт : 448 Кбит/сек
Каналы : 6 каналов
Расположение каналов : Front: L C R, Side: L R, LFE
Частота : 48,0 КГц
Битовая глубина : 16 бит
Метод сжатия : С потерями
Размер потока : 379 Мбайт (27%)
Выравнивание : Разделение по промежуткам
Продолжительность промежутка : 40 мс. (1,00 видеокадр)
Время предзагрузки промежутка : 500 мс.

Скриншот c названием фильма

Скриншоты

[Профиль] [ЛС]

Создавать темы 06-Авг-2015 23:18 (спустя 11 месяцев 24 дня)

Топик был перенесен из форума Фильмы до 2014 года в форум Фильмы до 2012 года
sergej644
 

Создавать темы 12-Июн-2016 07:54 (спустя 1 год 9 месяцев)

Топик был перенесен из форума Фильмы 2011 года в форум Фильмы 2010 года
Russian Mafia
 
Показать сообщения:    

Текущее время: Сегодня 18:18

Часовой пояс: GMT



Вы не можете начинать темы
Вы не можете отвечать на сообщения
Вы не можете редактировать свои сообщения
Вы не можете удалять свои сообщения
Вы не можете голосовать в опросах
Вы не можете прикреплять файлы к сообщениям
Вы не можете скачивать файлы