Честь / Nomus (Хилол Насимов / Hilol Nasimov) [2006, Узбекистан, драма, мелодрама, DVB] MVO

 
Автор Сообщение

painkiller ®

Стаж: 2 года 3 месяца

Сообщений: 582



Награды: Нет

Торрент-статистика

Создавать темы 19-Авг-2014 01:01

[Цитировать]

Честь / Nomus
Страна: Узбекистан
Жанр: драма, мелодрама
Год выпуска: 2006
Продолжительность: 01:31:08
Перевод: Профессиональный (многоголосый закадровый)
Cубтитры: нет
Оригинальная аудиодорожка: нет
Режиссер: Хилол Насимов / Hilol Nasimov
В ролях: Малика Хусаинова, Бекзод Хамраев, Рано Закирова, Фатима Режаметова, Бобур Арсланов, Махмуд Исмаилов, Даврон Каюнбаев, Гюльмар Абдуллаева
Описание: Фильм рассказывает о безграничной любви двух юных сердец — Асаль и Акмаля.
Доп. информация: Запись потока *.ts со спутника ABS-1, ремукс в *.mpg программой VideoReDo.
Качество видео: DVB
Формат видео: MPEG-PS
Видео: 720(768)x576 (4:3), 25,000 кадров/сек, 3 500 Кбит/сек
Аудио: MPEG Audio, 48,0 КГц, 192 Кбит/сек, 2 канала

MediaInfo

General
Complete name : D:\MPG\ЧЕСТЬ (МИР).mpg
Format : MPEG-PS
File size : 2.38 GiB
Duration : 1h 31mn
Overall bit rate mode : Variable
Overall bit rate : 3 742 Kbps
Video
ID : 224 (0xE0)
Format : MPEG Video
Format version : Version 2
Format profile : Main@Main
Format settings, BVOP : Yes
Format settings, Matrix : Custom
Format settings, GOP : M=3, N=24
Duration : 1h 31mn
Bit rate mode : Variable
Bit rate : 3 500 Kbps
Width : 720 pixels
Height : 576 pixels
Display aspect ratio : 4:3
Frame rate : 25.000 fps
Standard : PAL
Color space : YUV
Chroma subsampling : 4:2:0
Bit depth : 8 bits
Scan type : Interlaced
Scan order : Top Field First
Compression mode : Lossy
Bits/(Pixel*Frame) : 0.338
Time code of first frame : 00:00:00:00
Time code source : Group of pictures header
Stream size : 2.21 GiB (93%)
Audio
ID : 192 (0xC0)
Format : MPEG Audio
Format version : Version 1
Format profile : Layer 2
Duration : 1h 31mn
Bit rate mode : Constant
Bit rate : 192 Kbps
Channel count : 2 channels
Sampling rate : 48.0 KHz
Compression mode : Lossy
Delay relative to video : 10ms
Stream size : 125 MiB (5%)

Скриншот c названием фильма

[Профиль] [ЛС]

Создавать темы 06-Авг-2015 23:06 (спустя 11 месяцев 18 дней)

Топик был перенесен из форума Фильмы до 2014 года в форум Фильмы до 2012 года
sergej644
 
Показать сообщения:    

Текущее время: Сегодня 22:43

Часовой пояс: GMT



Вы не можете начинать темы
Вы не можете отвечать на сообщения
Вы не можете редактировать свои сообщения
Вы не можете удалять свои сообщения
Вы не можете голосовать в опросах
Вы не можете прикреплять файлы к сообщениям
Вы не можете скачивать файлы