Чертов мобильник / Телефон из ада / Hellphone (Джеймс Хат / James Huth) [2007, ужасы, фэнтези, комедия, детектив, HDTVRip] Dub (Мосфильм-Мастер) + Original (fre) + Sub (rus)

 
Автор Сообщение

TorrentFilm ®

Пол:

Стаж: 2 года

Сообщений: 7741



Награды: Нет

Торрент-статистика

Создавать темы 07-Янв-2015 00:00

[Цитировать]

Чертов мобильник / HellphoneГод выпуска: 2007
Страна: Франция | |
Жанр: комедия, фантастика
Продолжительность: 01:35:22
Перевод: Профессиональный (полное дублирование)- «Мосфильм-Мастер»

Оригинальная звуковая дорожка [French]
Субтитры: RUS | *srt → Спасибо Dead Man666
Режиссер: Джеймс Ют / James Huth
Сценарий: Жан-Баптист Андреа / Jean-Baptiste Andrea, Джеймс Ют / James Huth, Соня Шиллито / Sonja Shillito
Продюсер: Эрик Альтмайер / Eric Altmeyer, Николас Альтмайер / Nicolas Altmeyer, Джеймс Ют / James Huth, Соня Шиллито / Sonja Shillito, Патрик Малакян / Patrick Malakian
Оператор: Стефан Ле Парк / Stéphane Le Parc
Композитор: Бруно Куле / Bruno Coulais
В ролях: Жан-Батист Монье (Sid), Дженнифер Декер (Angie), Бенджамин Джангерс (Pierre), Владимир Консиньи (Virgile), Эдуард Коллин (Franklin), Баптисте Кайло (David), Анаис Демустье (Clémence), Жюдит Шемла (Margot), Кантен Гроссе (Félix), Жеральдин Мартино (Charlotte), Жиль Гастон-Дрейфус (M. Tamalet), Кристиан Эк (Fritz)
Дублёры: Михаил Тихонов (Sid), Жанна Никонова (Angie), Александр Комлев (Pierre), Александр Гаврилин (Virgile), Андрей Бархударов, Илья Хвостиков (Franklin), Алексей Костричкин (David), Наталья Фищук (Clémence), Ольга Кузнецова, Полина Щербакова (Margot), Ольга Зверева (Charlotte), Вячеслав Баранов (M. Tamalet)-Сборы в России: $1 811 461
Сборы в мире: $4 237 092
Мировая премьера: 28 марта 2007-Описание: У семнадцатилетнего Сида была одна страсть - скейтборд, пока в его классе не появилась «чумовая» новенькая Анге, от которой у Сида «снесло башню». У бедного парня нет ни единого шанса покорить сердце красотки. Во-первых, он живет в трущобах на окраине города, во-вторых, работает официантом в вонючей забегаловке, в третьих - в кармане пусто, а главное - у него нет даже МОБИЛЬНИКА! Сид знает, что он самый жалкий неудачник на земле.
Но жизнь парня круто меняется, когда ему в руки случайно попадает потрясающе крутой мобильник. Как лампа Аладдина, мобила моментально выполняет все желания Сида. Теперь ему доступно абсолютно все, казалось бы, о чем еще мечтать? Но постепенно Сид начинает терять контроль над происходящим, и его жизнь превращается в нереальные приключения...- Рейтинг
kinopoisk.ru: 4.748 (11 880)
imdb.com: 5.10 (1267)
-Качество: HDTVRip [HDTV1080i] + финальные титры с DVD9
Формат: AVI ///СОВМЕСТИМО С БЫТОВЫМИ ПЛЕЕРАМИ///
Размер : 1/3 DVD-R
Видео: 720x304 (2.37:1), 25 fps, XviD build 66 ~1795 kbps avg, 0.33 bit/pixel

//SAMPLE//

Аудио: 48 kHz, AC3 Dolby Digital, 3/2 (L,C,R,l,r) + LFE ch, ~384 kbps - RUS - Dub [Мосфильм-Мастер]

Отдельно:
Аудио: 48 kHz, AC3 Dolby Digital, 2/0 (L,R) ch, 192.00 kbps avg - Original
MIКод:General
Complete name : H:\!Allfilms\Chyortov.Mobilnik.2007.XviD.HDTVRip.-Allfilms\Chyortov.Mobilnik.2007.XviD.HDTVRip.-Allfilms.avi
Format : AVI
Format/Info : Audio Video Interleave
File size : 1.46 GiB
Duration : 1h 35mn
Overall bit rate : 2 189 Kbps
Movie name : Чёртов мобильник / Телефон из ада / Hellphone [2007] HDTVRip -All Films
Director : Юpист
Genre : комедия, фантастика
Writing application : VirtualDubMod 1.5.10.3 | www.virtualdub-fr.org || (build 2550/release)
Writing library : VirtualDubMod build 2550/release
Copyright : RG All Films [torrentfilm.net]
Video
ID : 0
Format : MPEG-4 Visual
Format profile : Advanced Simple@L5
Format settings, BVOP : 1
Format settings, QPel : No
Format settings, GMC : No warppoints
Format settings, Matrix : Custom
Codec ID : XVID
Codec ID/Hint : XviD
Duration : 1h 35mn
Bit rate : 1 795 Kbps
Width : 720 pixels
Height : 304 pixels
Display aspect ratio : 2.35:1
Frame rate : 25.000 fps
Color space : YUV
Chroma subsampling : 4:2:0
Bit depth : 8 bits
Scan type : Progressive
Compression mode : Lossy
Bits/(Pixel*Frame) : 0.328
Stream size : 1.20 GiB (82%)
Writing library : XviD 66
Audio
ID : 1
Format : AC-3
Format/Info : Audio Coding 3
Mode extension : CM (complete main)
Format settings, Endianness : Big
Codec ID : 2000
Duration : 1h 35mn
Bit rate mode : Constant
Bit rate : 384 Kbps
Channel(s) : 6 channels
Channel positions : Front: L C R, Side: L R, LFE
Sampling rate : 48.0 KHz
Bit depth : 16 bits
Compression mode : Lossy
Stream size : 262 MiB (18%)
Alignment : Split accross interleaves
Interleave, duration : 40 ms (1.00 video frame)
Interleave, preload duratio : 500 ms
Title : RUS - Dub [Мосфильм-Мастер]

-

-

Скриншоты


-
Знаете ли Вы, что...

  • Мобильник-главный герой перед съемками был приобретен на популярном Российском портале Digital eXtern, и затем был перепродан на аукционе Калифорнийской киноакадемии за 30 000 долларов. Причина покупки именно на российском интернет-ресурсе неизвестна.
  • В одной сцене в кинотеатре можно увидеть фильм одного из сценаристов Жана-Баптиста Андреа «Тупик».
-
[Профиль] [ЛС]

Создавать темы 06-Авг-2015 22:50 (спустя 6 месяцев 30 дней)

Топик был перенесен из форума Фильмы до 2014 года в форум Фильмы до 2012 года
sergej644
 
Показать сообщения:    

Текущее время: Сегодня 02:30

Часовой пояс: GMT



Вы не можете начинать темы
Вы не можете отвечать на сообщения
Вы не можете редактировать свои сообщения
Вы не можете удалять свои сообщения
Вы не можете голосовать в опросах
Вы не можете прикреплять файлы к сообщениям
Вы не можете скачивать файлы