Чертов мобильник / Hellphone (Джеймс Ют / James Huth) [2007, Франция, ужасы, фэнтези, комедия, DVDRip-AVC] Dub + Sub Rus + Original Fre

 
Автор Сообщение

painkiller ®

Стаж: 2 года 3 месяца

Сообщений: 582



Награды: Нет

Торрент-статистика

Создавать темы 23-Авг-2014 01:02

[Цитировать]

Чертов мобильник / Hellphone
Страна: Франция
Жанр: ужасы, фэнтези, комедия
Год выпуска: 2007
Продолжительность: 01:35:23
Перевод: Профессиональный (дублированный)
Cубтитры: русские
Оригинальная аудиодорожка: французский
Режиссер: Джеймс Ют / James Huth
В ролях: Жан-Батист Монье, Дженнифер Декер, Бенджамин Джангерс, Владимир Консиньи, Эдуард Коллин, Баптисте Кайло, Анаис Демустье, Жюдит Шемла, Кантен Гроссе, Жеральдин Мартино...
Описание: У семнадцатилетнего Сида была одна страсть — скейтборд, пока в его классе не появилась «чумовая» новенькая Анге, от которой у Сида «снесло башню». У бедного парня нет ни единого шанса покорить сердце красотки. Во-первых, он живет в трущобах на окраине города, во-вторых, работает официантом в вонючей забегаловке, в третьих — в кармане пусто, а главное — у него нет даже МОБИЛЬНИКА! Сид знает, что он самый жалкий неудачник на земле.
Но жизнь парня круто меняется, когда ему в руки случайно попадает потрясающе крутой мобильник. Как лампа Аладдина, мобила моментально выполняет все желания Сида. Теперь ему доступно абсолютно все, казалось бы, о чем еще мечтать? Но постепенно Сид начинает терять контроль над происходящим, и его жизнь превращается в нереальные приключения…
Сэмпл: http://multi-up.com/994016
Качество видео: DVDRip-AVC
Формат видео: MKV
Видео: 716x432 (2.35:1) @ 1016x432, 25.000 fps, AVC, ~1725 Kbps, 0.223 bits/pixel
Аудио 1: Russian, 48.0 KHz, AC3, 6 ch, 448 Kbps
Аудио 2: French, 48.0 KHz, AC3, 2 ch, 192 Kbps отдельным файлом

MediaInfo

General
Unique ID : 190056981560156124728768439199289943251 (0x8EFBA4A8461D6DBD93FED6DE1709A4D3)
Complete name : D:\Hellphone\Hellphone.mkv
Format : Matroska
Format version : Version 4 / Version 2
File size : 1.45 GiB
Duration : 1h 35mn
Overall bit rate : 2 174 Kbps
Encoded date : UTC 2014-08-22 10:54:43
Writing application : mkvmerge v7.1.0 ('Good Love') 64bit built on Jul 27 2014 13:06:55
Writing library : libebml v1.3.0 + libmatroska v1.4.1
DURATION : 01:28:53.839000000
NUMBER_OF_FRAMES : 889
NUMBER_OF_BYTES : 58383
_STATISTICS_WRITING_APP : mkvmerge v7.1.0 ('Good Love') 64bit built on Jul 27 2014 13:06:55
_STATISTICS_WRITING_DATE_UTC : 2014-08-22 10:54:43
_STATISTICS_TAGS : BPS DURATION NUMBER_OF_FRAMES NUMBER_OF_BYTES
Video
ID : 1
Format : AVC
Format/Info : Advanced Video Codec
Format profile : High@L3.1
Format settings, CABAC : Yes
Format settings, ReFrames : 10 frames
Codec ID : V_MPEG4/ISO/AVC
Duration : 1h 35mn
Bit rate : 1 725 Kbps
Width : 716 pixels
Height : 432 pixels
Display aspect ratio : 2.35:1
Frame rate mode : Constant
Frame rate : 25.000 fps
Color space : YUV
Chroma subsampling : 4:2:0
Bit depth : 8 bits
Scan type : Progressive
Bits/(Pixel*Frame) : 0.223
Stream size : 1.12 GiB (77%)
Writing library : x264 core 129 r2245+729M 1a52e03
Encoding settings : cabac=1 / ref=10 / deblock=1:-1:-1 / analyse=0x3:0x133 / me=umh / subme=10 / psy=1 / fade_compensate=0.00 / psy_rd=1.00:0.10 / mixed_ref=1 / me_range=32 / chroma_me=1 / trellis=2 / 8x8dct=1 / cqm=0 / deadzone=21,11 / fast_pskip=0 / chroma_qp_offset=-3 / threads=6 / lookahead_threads=1 / sliced_threads=0 / nr=0 / decimate=1 / interlaced=0 / bluray_compat=0 / constrained_intra=0 / fgo=0 / bframes=10 / b_pyramid=2 / b_adapt=2 / b_bias=0 / direct=3 / weightb=1 / open_gop=0 / weightp=2 / keyint=250 / keyint_min=25 / scenecut=40 / intra_refresh=0 / rc_lookahead=50 / rc=2pass / mbtree=1 / bitrate=1725 / ratetol=1.0 / qcomp=0.60 / qpmin=0 / qpmax=69 / qpstep=4 / cplxblur=20.0 / qblur=0.5 / ip_ratio=1.40 / aq=1:1.00
Default : Yes
Forced : No
Matrix coefficients : BT.601
Audio
ID : 2
Format : AC-3
Format/Info : Audio Coding 3
Mode extension : CM (complete main)
Format settings, Endianness : Big
Codec ID : A_AC3
Duration : 1h 35mn
Bit rate mode : Constant
Bit rate : 448 Kbps
Channel(s) : 6 channels
Channel positions : Front: L C R, Side: L R, LFE
Sampling rate : 48.0 KHz
Bit depth : 16 bits
Compression mode : Lossy
Stream size : 306 MiB (21%)
Language : Russian
Default : Yes
Forced : No
Text
ID : 3
Format : UTF-8
Codec ID : S_TEXT/UTF8
Codec ID/Info : UTF-8 Plain Text
Language : Russian
Default : No
Forced : No
Menu
00:00:00.000 : :Chapter 01
00:08:09.880 : :Chapter 02
00:16:36.520 : :Chapter 03
00:25:01.600 : :Chapter 04
00:32:20.800 : :Chapter 05
00:40:22.360 : :Chapter 06
00:51:37.720 : :Chapter 07
01:03:45.520 : :Chapter 08
01:11:58.240 : :Chapter 09
01:20:17.320 : :Chapter 10
01:27:40.720 : :Chapter 11
01:30:10.720 : :Chapter 12
01:35:21.520 : :Chapter 13
01:35:22.000 : :Chapter 14

Скриншоты

[Профиль] [ЛС]

Создавать темы 06-Авг-2015 23:06 (спустя 11 месяцев 14 дней)

Топик был перенесен из форума Фильмы до 2014 года в форум Фильмы до 2012 года
sergej644
 
Показать сообщения:    

Текущее время: Сегодня 14:01

Часовой пояс: GMT



Вы не можете начинать темы
Вы не можете отвечать на сообщения
Вы не можете редактировать свои сообщения
Вы не можете удалять свои сообщения
Вы не можете голосовать в опросах
Вы не можете прикреплять файлы к сообщениям
Вы не можете скачивать файлы