Черный щит Фолуорта / The Black Shield of Falworth (1954) BDRip 720p | P

 
Автор Сообщение

Russian Mafia ®

Пол:

Стаж: 1 год 8 месяцев

Сообщений: 4246



Награды: 10 (Подробнее)

За внесенный вклад в развитие сайта (Количество: 1) Mega Seeder 2 (Количество: 1) Mega Seeder 1 (Количество: 1)
Торрент-статистика

Создавать темы 07-Авг-2016 07:11

[Цитировать]

Черный щит ФолуортаThe Black Shield of Falworth«All the wast pageantry...the towering excitement , the thundering thrills of knighthood's epic age !»- Страна: США
Жанр: мелодрама, приключения, история
Год выпуска: 1954
Продолжительность: 01:39:00
Перевод: Профессиональный (многоголосый, закадровый)-Режиссер: Рудольф Мате / Rudolph Maté-В ролях: Тони Кертис (Myles), Джанет Ли (Lady Anne), Дэвид Фаррар (Gilbert Blunt, Earl of Alban), Барбара Раш (Meg), Херберт Маршалл (William, Earl of Mackworth), Торин Тэтчер (Sir James), Дэн О’Херлихи (Prince Hal), Патрик О’Нил (Walter Blunt), Крэйг Хилл (Francis Gascoyne), Иэн Кит (King Henry IV), Дорис Ллойд (Dame Ellen), Риз Уильямс (Diccon Bowman)-Описание: Англия, XV век. Юноша Майлз и его сестра Мэг выросли в крестьянской семье, не зная своих родителей. От отца им осталось массивное золотое кольцо с гербом, на котором изображен черный щит. Понимая, что такая вещь не могла принадлежать простому человеку, Майлз решает во что бы то ни стало раскрыть тайну своего рождения...- -Семпл-Качество: BDRip
Контейнер: MKV
Видео: AVC, 1280x544 (2.35:1), 5489 kbps, 23,976 fps, 0,329 bpp
Аудио №1: русский / AC3 / 2.0 / 48 kHz / 192 kbps / MVO ( СТС )
Аудио №2: английский / AC3 / 2.0 / 48 kHz / 640 kbps
Навигация по главам: есть-

Media Info

Format : Matroska
Format version : Version 2
File size : 4.37 GiB
Duration : 1h 39mn
Overall bit rate : 6 325 Kbps
Movie name : = Черный щит Фолворта / The Black Shield of Falworth (1954) BDRip 720p by SC Kosmos =
Encoded date : UTC 2016-07-16 07:00:07
Writing application : mkvmerge v5.8.0 ('No Sleep / Pillow') built on Sep 2 2012 15:37:04
Writing library : libebml v1.2.3 + libmatroska v1.3.0
Attachment : Yes
Video
ID : 1
Format : AVC
Format/Info : Advanced Video Codec
Format profile : High@L4.1
Format settings, CABAC : Yes
Format settings, ReFrames : 12 frames
Codec ID : V_MPEG4/ISO/AVC
Duration : 1h 39mn
Bit rate : 5 489 Kbps
Width : 1 280 pixels
Height : 544 pixels
Display aspect ratio : 2.35:1
Frame rate : 23.976 fps
Color space : YUV
Chroma subsampling : 4:2:0
Bit depth : 8 bits
Scan type : Progressive
Bits/(Pixel*Frame) : 0.329
Stream size : 3.71 GiB (85%)
Title : Черный щит Фолворта / The Black Shield of Falworth (1954) BDRip 720p by SC Kosmos
Writing library : x264 core 146 r2538 121396c
Encoding settings : cabac=1 / ref=12 / deblock=1:-3:-3 / analyse=0x3:0x113 / me=umh / subme=11 / psy=1 / psy_rd=1.00:0.05 / mixed_ref=1 / me_range=32 / chroma_me=1 / trellis=2 / 8x8dct=1 / cqm=0 / deadzone=21,11 / fast_pskip=0 / chroma_qp_offset=-3 / threads=12 / lookahead_threads=3 / sliced_threads=0 / nr=0 / decimate=0 / interlaced=0 / bluray_compat=0 / constrained_intra=0 / bframes=12 / b_pyramid=2 / b_adapt=2 / b_bias=0 / direct=3 / weightb=1 / open_gop=0 / weightp=2 / keyint=240 / keyint_min=23 / scenecut=40 / intra_refresh=0 / rc_lookahead=50 / rc=2pass / mbtree=0 / bitrate=5489 / ratetol=1.0 / qcomp=0.60 / qpmin=0 / qpmax=69 / qpstep=4 / cplxblur=20.0 / qblur=0.5 / vbv_maxrate=62500 / vbv_bufsize=78125 / nal_hrd=none / filler=0 / ip_ratio=1.40 / pb_ratio=1.30 / aq=1:1.00
Language : English
Default : Yes
Forced : No
Color primaries : BT.709-5, BT.1361, IEC 61966-2-4, SMPTE RP177
Transfer characteristics : BT.709-5, BT.1361
Matrix coefficients : BT.709-5, BT.1361, IEC 61966-2-4 709, SMPTE RP177
Audio #1
ID : 2
Format : AC-3
Format/Info : Audio Coding 3
Mode extension : CM (complete main)
Codec ID : A_AC3
Duration : 1h 39mn
Bit rate mode : Constant
Bit rate : 192 Kbps
Channel(s) : 2 channels
Channel positions : Front: L R
Sampling rate : 48.0 KHz
Bit depth : 16 bits
Compression mode : Lossy
Stream size : 136 MiB (3%)
Title : MVO ( СТС )
Language : Russian
Default : Yes
Forced : No
Audio #2
ID : 3
Format : AC-3
Format/Info : Audio Coding 3
Mode extension : CM (complete main)
Codec ID : A_AC3
Duration : 1h 39mn
Bit rate mode : Constant
Bit rate : 640 Kbps
Channel(s) : 2 channels
Channel positions : Front: L R
Sampling rate : 48.0 KHz
Bit depth : 16 bits
Compression mode : Lossy
Stream size : 453 MiB (10%)
Language : English
Default : No
Forced : No
Menu
00:00:00.000 : en:00:00:00.000
00:08:40.228 : en:00:08:40.228
00:14:39.920 : en:00:14:39.920
00:25:51.800 : en:00:25:51.800
00:37:34.377 : en:00:37:34.377
00:42:35.928 : en:00:42:35.928
00:49:56.576 : en:00:49:56.576
00:56:50.907 : en:00:56:50.907
01:08:07.374 : en:01:08:07.374
01:19:20.046 : en:01:19:20.046
01:28:26.384 : en:01:28:26.384
01:38:31.196 : en:01:38:31.196
-

Скриншоты


[Профиль] [ЛС]
Показать сообщения:    

Текущее время: Сегодня 18:19

Часовой пояс: GMT



Вы не можете начинать темы
Вы не можете отвечать на сообщения
Вы не можете редактировать свои сообщения
Вы не можете удалять свои сообщения
Вы не можете голосовать в опросах
Вы не можете прикреплять файлы к сообщениям
Вы не можете скачивать файлы