Черный тюльпан / La tulipe noire (1963) BDRip 720p | D, P

 
Автор Сообщение

Russian Mafia ®

Пол:

Стаж: 1 год 8 месяцев

Сообщений: 4256



Награды: 10 (Подробнее)

Mega Seeder 2 (Количество: 1) Top Releaser 2 (Количество: 1) За внесенный вклад в развитие сайта (Количество: 1)
Торрент-статистика

Создавать темы 12-Июн-2016 07:26

[Цитировать]

Черный тюльпанLa tulipe noire- Страна: Франция, Италия, Испания
Жанр: боевик, комедия, приключения
Год выпуска: 1963
Продолжительность: 01:53:30
Перевод: Профессиональный (полное дублирование), Профессиональный (многоголосый, закадровый), Оригинальный
Субтитры: русские.-Режиссер: Кристиан-Жак / Christian-Jaque-В ролях: Ален Делон (Julien de Saint Preux / Guillaume de Saint Preux), Вирна Лизи (Caroline «Caro» Plantin), Адольфо Марсильяч (Baron La Mouche), Доун Аддамс (La marquise Catherine de Vigogne), Аким Тамирофф (Marquis de Vigogne), Лаура Валенсуэла (Lisette), Жорж Риго (Intendant General / Chief of Police), Франсис Бланш (Plantin), Хосе Хаспе (Brignon), Перла Кристаль, Хосе Луис Пеликена, Энрике Авила (Villager)
Дублёры: Василий Лановой (Julien de Saint Preux / Guillaume de Saint Preux), Тамара Сёмина (Caroline «Caro» Plantin), Всеволод Ларионов (Baron La Mouche), Серафима Холина (La marquise Catherine de Vigogne), Евгений Весник (Marquis de Vigogne), Семён Самодур, Владимир Кенигсон (Prince Alexandre de Grasillach de Morvan Lobo)-Описание: Накануне Французской революции в тихой провинции жуткий страх наводит на знатных мерзавцев таинственный разбойник в маске, чьим фирменным знаком стал черный тюльпан. Неуловимый мститель находчив, бесстрашен, благороден и умен, он прекрасный наездник и гений фехтования. Дворянин Жульен - беспечный неженка, глупый и трусливый - совсем на него не похож. Но никто не знает, что есть нечто, крепко связывающее этих двоих.- -Семпл-Качество: BDRip
Контейнер: MKV
Видео: AVC, 1280x568 (2.25:1), 9652 kbps, 24 fps, 0,553 bpp
Аудио №1: русский / AC3 / 2.0 / 48 kHz / 192 kbps Советский дубляж со вставками MVO
Аудио №2: русский / AC3 / 5.1 / 48 kHz / 448 kbps MVO
Аудио №3: французский / AC3 / 2.0 / 48 kHz / 640 kbps
Навигация по главам: есть-

Media Info

*******************************************************
x264 [info]: frame I:1025 Avg QP:15.60 size:157827
x264 [info]: frame P:34654 Avg QP:18.40 size: 84994
x264 [info]: frame B:127754 Avg QP:20.27 size: 39997
*******************************************************
Format : Matroska
Format version : Version 2
File size : 8.67 GiB
Duration : 1h 53mn
Overall bit rate : 10.9 Mbps
Movie name : = Чёрный тюльпан / La Tulipe Noire (1964) BDRip 720p by SC Kosmos =
Encoded date : UTC 2016-06-11 08:55:01
Writing application : mkvmerge v5.8.0 ('No Sleep / Pillow') built on Sep 2 2012 15:37:04
Writing library : libebml v1.2.3 + libmatroska v1.3.0
Attachment : Yes
Video
ID : 1
Format : AVC
Format/Info : Advanced Video Codec
Format profile : High@L4.1
Format settings, CABAC : Yes
Format settings, ReFrames : 10 frames
Codec ID : V_MPEG4/ISO/AVC
Duration : 1h 53mn
Bit rate : 9 652 Kbps
Width : 1 280 pixels
Height : 568 pixels
Display aspect ratio : 2.25:1
Frame rate : 24.000 fps
Color space : YUV
Chroma subsampling : 4:2:0
Bit depth : 8 bits
Scan type : Progressive
Bits/(Pixel*Frame) : 0.553
Stream size : 7.48 GiB (86%)
Title : Чёрный тюльпан / La Tulipe Noire (1964) BDRip 720p by SC Kosmos
Writing library : x264 core 146 r2538 121396c
Encoding settings : cabac=1 / ref=10 / deblock=1:-2:-2 / analyse=0x3:0x113 / me=esa / subme=11 / psy=1 / psy_rd=1.00:0.00 / mixed_ref=1 / me_range=32 / chroma_me=1 / trellis=2 / 8x8dct=1 / cqm=0 / deadzone=21,11 / fast_pskip=0 / chroma_qp_offset=-2 / threads=12 / lookahead_threads=3 / sliced_threads=0 / nr=0 / decimate=0 / interlaced=0 / bluray_compat=0 / constrained_intra=0 / bframes=12 / b_pyramid=2 / b_adapt=2 / b_bias=0 / direct=3 / weightb=1 / open_gop=0 / weightp=2 / keyint=240 / keyint_min=24 / scenecut=40 / intra_refresh=0 / rc_lookahead=50 / rc=2pass / mbtree=0 / bitrate=9652 / ratetol=1.0 / qcomp=0.60 / qpmin=0 / qpmax=69 / qpstep=4 / cplxblur=20.0 / qblur=0.5 / vbv_maxrate=50000 / vbv_bufsize=62500 / nal_hrd=none / filler=0 / ip_ratio=1.40 / pb_ratio=1.30 / aq=1:1.00
Language : French
Default : Yes
Forced : No
Audio #1
ID : 2
Format : AC-3
Format/Info : Audio Coding 3
Mode extension : CM (complete main)
Codec ID : A_AC3
Duration : 1h 53mn
Bit rate mode : Constant
Bit rate : 192 Kbps
Channel(s) : 2 channels
Channel positions : Front: L R
Sampling rate : 48.0 KHz
Bit depth : 16 bits
Compression mode : Lossy
Stream size : 156 MiB (2%)
Title : Дубляж
Language : Russian
Default : Yes
Forced : No
Audio #2
ID : 3
Format : AC-3
Format/Info : Audio Coding 3
Mode extension : CM (complete main)
Codec ID : A_AC3
Duration : 1h 53mn
Bit rate mode : Constant
Bit rate : 448 Kbps
Channel(s) : 6 channels
Channel positions : Front: L C R, Side: L R, LFE
Sampling rate : 48.0 KHz
Bit depth : 16 bits
Compression mode : Lossy
Stream size : 364 MiB (4%)
Title : MVO
Language : Russian
Default : No
Forced : No
Audio #3
ID : 4
Format : AC-3
Format/Info : Audio Coding 3
Mode extension : CM (complete main)
Codec ID : A_AC3
Duration : 1h 53mn
Bit rate mode : Constant
Bit rate : 640 Kbps
Channel(s) : 2 channels
Channel positions : Front: L R
Sampling rate : 48.0 KHz
Bit depth : 16 bits
Compression mode : Lossy
Stream size : 520 MiB (6%)
Language : French
Default : No
Forced : No
Text
ID : 5
Format : UTF-8
Codec ID : S_TEXT/UTF8
Codec ID/Info : UTF-8 Plain Text
Language : Russian
Default : No
Forced : No
Menu
00:00:00.000 : en:00:00:00.000
00:04:37.082 : en:00:04:37.082
00:11:17.916 : en:00:11:17.916
00:23:11.415 : en:00:23:11.415
00:27:25.000 : en:00:27:25.000
00:33:15.333 : en:00:33:15.333
00:44:07.166 : en:00:44:07.166
00:48:54.541 : en:00:48:54.541
00:59:35.041 : en:00:59:35.041
01:04:40.791 : en:01:04:40.791
01:10:28.291 : en:01:10:28.291
01:18:22.125 : en:01:18:22.125
01:23:20.291 : en:01:23:20.291
01:33:13.082 : en:01:33:13.082
01:41:40.541 : en:01:41:40.541
01:46:42.875 : en:01:46:42.875

Скриншоты


[Профиль] [ЛС]
Показать сообщения:    

Текущее время: Сегодня 20:33

Часовой пояс: GMT



Вы не можете начинать темы
Вы не можете отвечать на сообщения
Вы не можете редактировать свои сообщения
Вы не можете удалять свои сообщения
Вы не можете голосовать в опросах
Вы не можете прикреплять файлы к сообщениям
Вы не можете скачивать файлы