Черный Список / The Blacklist [02x01-05 из 22] (2014) WEB-DL 1080p | LostFilm, IdeaFilm, SET

 
Автор Сообщение

Белочка ®

Пол:

Стаж: 5 лет 1 месяц

Сообщений: 2089



Награды: 1 (Подробнее)

Girls (Количество: 1)
Торрент-статистика

Создавать темы 25-Окт-2014 21:53

[Цитировать]

Информация о фильме
Название: Черный Список
Оригинальное название: The Blacklist
Год выхода: 2014
Жанр: Драма, криминал, боевик, триллер, детектив
Режиссер: Джо Карнахан
В ролях: Джеймс Спэйдер, Меган Бун, Диего Клаттенхофф, Гарри Дж. Ленникс, Райан Игголд, Ильфенеш Хадера, Джессика Ши Элверсон, Чарльз Бэйкер, Дельфина Белль, Ник Блеймаер, Парминдер К. Награ
О фильме:
Один из самых разыскиваемых беглецов ФБР в исполнении Джеймса Спейдера («Секс, ложь и видео», «Практика») неожиданно добровольно сдаётся властям. Самодовольный преступник-хитрец начинает играть с ФБР в каверзную многоходовую игру: он обещает помочь федералам поймать опаснейших преступников Америки при условии, что с ним будет работать неопытная сотрудница Лиз Кин. ФБР в лице Гарри Ленникса соглашается на странную сделку не без непредсказуемых последствий.

Содержание

01. Лорд Балтимор / Lord Baltimore
02. Банк Монарх Дуглас / Monarch Douglas Bank
03. Доктор Джеймс Ковингтон / Dr. James Covington
04. Доктор Лайнус Крил / Dr. Linus Creel

Дополнительно

Работа со звуком -- k-marat-s
Русские субтитры — alex-mild16
За звук Sony SET спасибо wareznikzz (1,3) / NEZ (2, 4)(дорожка #3 только в 1-4 серии)

Страна: США
Продолжительность: ~ 00:43:00
Перевод: профессиональный (многоголосый, закадровый) - LostFilm, IdeaFilm, Sony SET
Файл
Кодек: x264
Качество: WEB-DL 1080p
Видео: MPEG-4 AVC/H.264, 1916x1076 (16:9), 23.976 fps, 4 827 Kbps (0.098 bit/pixel)
Звук:
Аудио #1: AC-3, 48.0 KHz, 6 ch, 384 Kbps, CBR (LostFilm)
Аудио #2: AC-3, 48.0 KHz, 6 ch, 384 Kbps, CBR (IdeaFilm)
Аудио #3: AC-3, 48.0 KHz, 2 ch, 192 Kbps, CBR (Sony SET)
Аудио #4: AC-3, 48.0 KHz, 6 ch, 384 Kbps, CBR (English)
Вид субтитров: Вшитые отключаемые
Язык субтитров: Русский (1-4 серии), английский

MI

General
Complete name : F:СериалраздачаThe.Blacklist.S02.1080p.WEB-DLThe.Blacklist.S02E01.1080p.WEB-DL.Rus.Eng.mkv
Format : Matroska
File size : 1.89 GiB
Duration : 42mn 54s
Overall bit rate : 6 297 Kbps
Movie name : The.Blacklist.S02E01.1080p
Encoded date : UTC 2014-10-19 08:16:40
Writing application : mkvmerge v5.8.0 ('No Sleep / Pillow') built on Sep 2 2012 15:37:04
Writing library : libebml v1.2.3 + libmatroska v1.3.0
Video
ID : 1
Format : AVC
Format/Info : Advanced Video Codec
Format profile : High@L4.0
Format settings, CABAC : Yes
Format settings, ReFrames : 4 frames
Format settings, GOP : M=2, N=30
Muxing mode : Container profile=Unknown@4.0
Codec ID : V_MPEG4/ISO/AVC
Duration : 42mn 54s
Bit rate mode : Variable
Bit rate : 4 827 Kbps
Width : 1 916 pixels
Height : 1 076 pixels
Display aspect ratio : 16:9
Frame rate : 23.976 fps
Color space : YUV
Chroma subsampling : 4:2:0
Bit depth : 8 bits
Scan type : Progressive
Bits/(Pixel*Frame) : 0.098
Stream size : 1.45 GiB (77%)
Title : The Blacklist 2x01 (2014)
Language : English
Color primaries : BT.709-5, BT.1361, IEC 61966-2-4, SMPTE RP177
Transfer characteristics : BT.709-5, BT.1361
Matrix coefficients : BT.709-5, BT.1361, IEC 61966-2-4 709, SMPTE RP177
Audio #1
ID : 2
Format : AC-3
Format/Info : Audio Coding 3
Mode extension : CM (complete main)
Muxing mode : Header stripping
Codec ID : A_AC3
Duration : 42mn 54s
Bit rate mode : Constant
Bit rate : 384 Kbps
Channel(s) : 6 channels
Channel positions : Front: L C R, Side: L R, LFE
Sampling rate : 48.0 KHz
Bit depth : 16 bits
Stream size : 118 MiB (6%)
Title : LostFilm
Language : Russian
Audio #2
ID : 3
Format : AC-3
Format/Info : Audio Coding 3
Mode extension : CM (complete main)
Muxing mode : Header stripping
Codec ID : A_AC3
Duration : 42mn 54s
Bit rate mode : Constant
Bit rate : 384 Kbps
Channel(s) : 6 channels
Channel positions : Front: L C R, Side: L R, LFE
Sampling rate : 48.0 KHz
Bit depth : 16 bits
Video delay : 6ms
Stream size : 118 MiB (6%)
Title : IDEAFILM.BIZ
Language : Russian
Audio #3
ID : 4
Format : AC-3
Format/Info : Audio Coding 3
Mode extension : CM (complete main)
Muxing mode : Header stripping
Codec ID : A_AC3
Duration : 42mn 54s
Bit rate mode : Constant
Bit rate : 192 Kbps
Channel(s) : 2 channels
Channel positions : Front: L R
Sampling rate : 48.0 KHz
Bit depth : 16 bits
Stream size : 58.9 MiB (3%)
Title : Sony SET
Language : Russian
Audio #4
ID : 5
Format : AC-3
Format/Info : Audio Coding 3
Mode extension : CM (complete main)
Muxing mode : Header stripping
Codec ID : A_AC3
Duration : 42mn 54s
Bit rate mode : Constant
Bit rate : 384 Kbps
Channel(s) : 6 channels
Channel positions : Front: L C R, Side: L R, LFE
Sampling rate : 48.0 KHz
Bit depth : 16 bits
Stream size : 118 MiB (6%)
Title : English
Language : English
Text #1
ID : 6
Format : UTF-8
Codec ID : S_TEXT/UTF8
Codec ID/Info : UTF-8 Plain Text
Title : Russian Sub
Language : Russian
Text #2
ID : 7
Format : UTF-8
Codec ID : S_TEXT/UTF8
Codec ID/Info : UTF-8 Plain Text
Title : English Sub
Language : English

Скриншоты



[Профиль] [ЛС]
Показать сообщения:    

Текущее время: Сегодня 18:45

Часовой пояс: GMT



Вы не можете начинать темы
Вы не можете отвечать на сообщения
Вы не можете редактировать свои сообщения
Вы не можете удалять свои сообщения
Вы не можете голосовать в опросах
Вы не можете прикреплять файлы к сообщениям
Вы не можете скачивать файлы