Черный Список / The Blacklist [s01] (2013-2014) BDRip 720p от HDClub | LostFilm, SET

 
Автор Сообщение

Белочка ®

Пол:

Стаж: 5 лет 1 месяц

Сообщений: 2089



Награды: 1 (Подробнее)

Girls (Количество: 1)
Торрент-статистика

Создавать темы 22-Окт-2014 21:39

[Цитировать]


Информация о фильме
Название: Черный Список
Оригинальное название: The Blacklist
Год выхода: 2013-2014
Жанр: Драма, криминал, боевик, триллер, детектив
Режиссер: Джо Карнахан
В ролях: Джеймс Спэйдер, Меган Бун, Диего Клаттенхофф, Гарри Дж. Ленникс, Райан Игголд, Ильфенеш Хадера, Джессика Ши Элверсон, Чарльз Бэйкер, Дельфина Белль, Ник Блеймаер, Парминдер К. Награ
О фильме:
Один из самых разыскиваемых беглецов ФБР в исполнении Джеймса Спейдера («Секс, ложь и видео», «Практика») неожиданно добровольно сдаётся властям. Самодовольный преступник-хитрец начинает играть с ФБР в каверзную многоходовую игру: он обещает помочь федералам поймать опаснейших преступников Америки при условии, что с ним будет работать неопытная сотрудница Лиз Кин. ФБР в лице Гарри Ленникса соглашается на странную сделку не без непредсказуемых последствий.

MI

Общее
Уникальный идентификатор : 187710009384486549848015418068519176723 (0x8D37A1FEC0E2285BB00B153B9F954A13)
Полное имя : Blacklist.S01.720p.BDRip.2xRus.Sub.Eng.HDCLUBThe.Blacklist.S01E01.BDRip.2xRus.Sub.Eng.HDCLUB.mkv
Формат : Matroska
Версия формата : Version 2
Размер файла : 2,52 Гбайт
Продолжительность : 45 м.
Общий поток : 7985 Кбит/сек
Название фильма : for HDCLUB by markinscor
Дата кодирования : UTC 2014-10-18 11:41:22
Программа кодирования : mkvmerge v5.8.0 ('No Sleep / Pillow') built on Sep 2 2012 15:37:04
Библиотека кодирования : libebml v1.2.3 + libmatroska v1.3.0
Видео
Идентификатор : 1
Формат : AVC
Формат/Информация : Advanced Video Codec
Профиль формата : High@L4.1
Параметр CABAC формата : Да
Параметр ReFrames формата : 9 кадров
Идентификатор кодека : V_MPEG4/ISO/AVC
Продолжительность : 45 м.
Номинальный битрейт : 6500 Кбит/сек
Ширина : 1280 пикселей
Высота : 720 пикселей
Соотношение сторон : 16:9
Режим частоты кадров : Постоянный
Частота кадров : 23,976 кадра/сек
Цветовое пространство : YUV
Субдискретизация насыщенности : 4:2:0
Битовая глубина : 8 бит
Тип развёртки : Прогрессивная
Бит/(Пиксели*Кадры) : 0.294
Библиотека кодирования : x264 core 130 r2273 b3065e6
Настройки программы : cabac=1 / ref=9 / deblock=1:-3:-3 / analyse=0x3:0x133 / me=umh / subme=11 / psy=1 / psy_rd=1.00:0.00 / mixed_ref=1 / me_range=32 / chroma_me=1 / trellis=2 / 8x8dct=1 / cqm=0 / deadzone=21,11 / fast_pskip=0 / chroma_qp_offset=-2 / threads=12 / lookahead_threads=2 / sliced_threads=0 / nr=0 / decimate=1 / interlaced=0 / bluray_compat=0 / constrained_intra=0 / bframes=8 / b_pyramid=2 / b_adapt=2 / b_bias=0 / direct=3 / weightb=1 / open_gop=0 / weightp=2 / keyint=250 / keyint_min=23 / scenecut=40 / intra_refresh=0 / rc_lookahead=60 / rc=2pass / mbtree=1 / bitrate=6500 / ratetol=1.0 / qcomp=0.70 / qpmin=0 / qpmax=69 / qpstep=4 / cplxblur=20.0 / qblur=0.5 / ip_ratio=1.40 / aq=1:0.80
Язык : English
Default : Да
Forced : Нет
Аудио #1
Идентификатор : 2
Формат : AC-3
Формат/Информация : Audio Coding 3
Расширение режима : CM (complete main)
Параметр Endianness формата : Big
Идентификатор кодека : A_AC3
Продолжительность : 45 м.
Вид битрейта : Постоянный
Битрейт : 640 Кбит/сек
Каналы : 6 каналов
Расположение каналов : Front: L C R, Side: L R, LFE
Частота : 48,0 КГц
Битовая глубина : 16 бит
Метод сжатия : С потерями
Размер потока : 207 Мбайт (8%)
Заголовок : MVO LostFilm
Язык : Russian
Default : Да
Forced : Нет
Аудио #2
Идентификатор : 3
Формат : AC-3
Формат/Информация : Audio Coding 3
Расширение режима : CM (complete main)
Параметр Endianness формата : Big
Идентификатор кодека : A_AC3
Продолжительность : 45 м.
Вид битрейта : Постоянный
Битрейт : 192 Кбит/сек
Каналы : 2 канала
Расположение каналов : Front: L R
Частота : 48,0 КГц
Битовая глубина : 16 бит
Метод сжатия : С потерями
Размер потока : 62,1 Мбайт (2%)
Заголовок : DVO SET
Язык : Russian
Default : Нет
Forced : Нет
Аудио #3
Идентификатор : 4
Формат : AC-3
Формат/Информация : Audio Coding 3
Расширение режима : CM (complete main)
Параметр Endianness формата : Big
Идентификатор кодека : A_AC3
Продолжительность : 45 м.
Вид битрейта : Постоянный
Битрейт : 640 Кбит/сек
Каналы : 6 каналов
Расположение каналов : Front: L C R, Side: L R, LFE
Частота : 48,0 КГц
Битовая глубина : 16 бит
Метод сжатия : С потерями
Размер потока : 207 Мбайт (8%)
Язык : English
Default : Нет
Forced : Нет
Аудио #4
Идентификатор : 5
Формат : AAC
Формат/Информация : Advanced Audio Codec
Профиль формата : LC
Идентификатор кодека : A_AAC
Продолжительность : 45 м.
Каналы : 2 канала
Расположение каналов : Front: L R
Частота : 48,0 КГц
Метод сжатия : С потерями
Задержка видео : 20 мс.
Заголовок : Commentary
Язык : English
Default : Нет
Forced : Нет
Текст #1
Идентификатор : 6
Формат : UTF-8
Идентификатор кодека : S_TEXT/UTF8
Идентификатор кодека/Информация : UTF-8 Plain Text
Заголовок : Notabenoid
Язык : Russian
Default : Нет
Forced : Нет
Текст #2
Идентификатор : 7
Формат : UTF-8
Идентификатор кодека : S_TEXT/UTF8
Идентификатор кодека/Информация : UTF-8 Plain Text
Язык : English
Default : Нет
Forced : Нет
Текст #3
Идентификатор : 8
Формат : UTF-8
Идентификатор кодека : S_TEXT/UTF8
Идентификатор кодека/Информация : UTF-8 Plain Text
Заголовок : SDH
Язык : English
Default : Нет
Forced : Нет
Текст #4
Идентификатор : 9
Формат : ASS
Идентификатор кодека : S_TEXT/ASS
Идентификатор кодека/Информация : Advanced Sub Station Alpha
Метод сжатия : Без потерь
Заголовок : Styled SDH
Язык : English
Default : Нет
Forced : Нет
Меню
00:00:00.000 : en:00:00:00.000
00:01:55.365 : en:00:01:55.365
00:20:41.574 : en:00:20:41.574
00:30:00.298 : en:00:30:00.298
00:38:32.143 : en:00:38:32.143
00:44:34.338 : en:00:44:34.338

Содержание

01. Пилот / Pilot
02. Фрилансер / The Freelancer
03. Ву Джин / Wujing
04. Суповар / The Stewmaker
05. Курьер / The Courier
06. Джина Занэтакос / Gina Zanetakos
07. Фредерик Барнс / Frederick Barnes
08. Генерал Лудд / General Ludd
09. Энсло Гэррик. Часть 1 / Anslo Garrick
10. Энсло Гэррик. Часть 2 / Anslo Garrick
11. Добрый самаритянин / The Good Samaritan
12. Алхимик / The Alchemist
13. Кипрское агентство / The Cyprus Agency
14. Мэделин Прэтт / Madeline Pratt
15. Судья / The Judge
16. Мако Танида / Mako Tanida
17. Иван / Ivan
18. Милтон Боббит / Milton Bobbit
19. Братья Павлович / The Pavlovich Brothers
20. Создатель королей / The Kingmaker
21. Берлин. Часть 1 / Berlin
22. Берлин. Часть 2 / Berlin

Дополнительно

Релиз: CasStudio и HDClub by markinscor
Работа со звуком: 13napas(подгон SET'а), markinscor
Работа с субтитрами: Enclave76
Рип: Wiki

Награды

Золотой глобус, 2014 год
Номинации (1):
Лучшая мужская роль на ТВ (драма) (Джеймс Спэйдер)
Сатурн, 2014 год
Номинации (2):
Лучший телеактер сериала (Джеймс Спэйдер)
Лучший телесериал, созданный для телетрансляции

Страна: США
Продолжительность: ~ 00:43:00
Перевод: профессиональный (многоголосый, закадровый) - LostFilm, SET
Файл
Источник: The.Blacklist.S01.720p.BluRay.x264.DTS-WiKi
Видео: 1280x720 at 23.976 fps, MPEG-4 AVC, ~6500 kbps avg
Аудио#1: Russian: 48 kHz, AC3 5.1, ~640.00 kbps avg |Многоголосый закадровый, LostFilm|
Аудио#2: Russian: 48 kHz, AC3 2.0, ~192.00 kbps avg |Двухголосый закадровый, SET|
Аудио#3: English: 48 kHz, AC3 5.1, ~640.00 kbps avg
Субтитры: Russian(Notabenoid), English, English(SDH)

Скриншоты



[Профиль] [ЛС]
Показать сообщения:    

Текущее время: Сегодня 02:44

Часовой пояс: GMT



Вы не можете начинать темы
Вы не можете отвечать на сообщения
Вы не можете редактировать свои сообщения
Вы не можете удалять свои сообщения
Вы не можете голосовать в опросах
Вы не можете прикреплять файлы к сообщениям
Вы не можете скачивать файлы