Черный самурай / Сурма. Чёрные самураи / The Black Samurai (Жан Кейра / Jean Queyrat) [2007, Документальный, HDTV 1080i]

 
Автор Сообщение

TorrentFilm ®

Пол:

Стаж: 2 года

Сообщений: 7741



Награды: Нет

Торрент-статистика

Создавать темы 17-Дек-2014 02:36

[Цитировать]

Черный самурай / Сурма. Чёрные самураи / The Black Samurai / HDTV
Год выпуска: 2007
Страна: Франция
Студия: ZED
Жанр: Документальный
Продолжительность: 00:51:00
Перевод: Одноголосый закадровый
Доп. инфо о переводе: 1 ТВЧ
Русские субтитры: нет
Режиссер: Жан Кейра / Jean Queyrat
Описание: Сурма - самый древний народ на земле. Они живут в Великой рифтовой долине, где 195 тысяч лет назад появился homo sapiens. Их всего 28 тысяч, они живут в изоляции от всего мира и до сих пор берегут традиции своих предков. Вместе с тем память народа Сурма хранит тайны далекого прошлого, когда не было ни цивилизации, ни науки, ни истории. Фильм раскрывает самую загадочную традицию боев донго. Безжалостные схватки являются частью жестокой жизни этих племен, где слабость означает смерть.
Сэмпл: https://yadi.sk/d/HBMrOnuPdHD9H
Тип релиза: HDTV 1080i
Контейнер: TS
Видео: 1920x1080, 16:9, 25 fps, AVC, 13,2 Мбит/сек
Аудио: Rus 48 kHz, MPEG Audio, 2 ch, 192 kbps

MediaInfo

ОбщееИдентификатор : 203 (0xCB)Полное имя : E:\Rutracker-Razdachi\Черный самурай. Сурма.2007.HDTV.by.Gangsteel.tsФормат : MPEG-TSРазмер файла : 4,79 ГбайтПродолжительность : 51 м.Режим общего битрейта : ПеременныйОбщий поток : 13,2 Мбит/сек
ВидеоИдентификатор : 3011 (0xBC3)Идентификатор меню : 3001 (0xBB9)Формат : AVCФормат/Информация : Advanced Video CodecПрофиль формата : Main@L4.0Параметр CABAC формата : ДаПараметр ReFrames формата : 3 кадраИдентификатор кодека : 27Продолжительность : 51 м.Битрейт : 12,4 Мбит/секШирина : 1920 пикселейВысота : 1080 пикселейСоотношение сторон : 16:9Частота кадров : 25,000 кадров/секСтандарт вещания : ComponentЦветовое пространство : YUVСубдискретизация насыщенности : 4:2:0Битовая глубина : 8 битТип развёртки : ЧересстрочнаяПорядок развёртки : Верхнее поле первоеБит/(Пиксели*Кадры) : 0.239Размер потока : 4,48 Гбайт (94%)Основные цвета : BT.709Характеристики трансфера : BT.709Коэффициенты матрицы : BT.709colour_range : Limited
АудиоИдентификатор : 3012 (0xBC4)Идентификатор меню : 3001 (0xBB9)Формат : MPEG AudioВерсия формата : Version 1Профиль формата : Layer 2Идентификатор кодека : 4Продолжительность : 51 м.Вид битрейта : ПостоянныйБитрейт : 192 Кбит/секКаналы : 2 каналаЧастота : 48,0 КГцМетод сжатия : С потерямиЗадержка видео : -1 с. 35 мс.Размер потока : 71,3 Мбайт (1%)

Скриншоты

[Профиль] [ЛС]
Показать сообщения:    

Текущее время: Сегодня 12:50

Часовой пояс: GMT



Вы не можете начинать темы
Вы не можете отвечать на сообщения
Вы не можете редактировать свои сообщения
Вы не можете удалять свои сообщения
Вы не можете голосовать в опросах
Вы не можете прикреплять файлы к сообщениям
Вы не можете скачивать файлы