Черный плавник / Blackfish (2013) BDRip 720p от New-Team | L1

 
Автор Сообщение

достали все ®

Пол:

Стаж: 1 год 8 месяцев

Сообщений: 6611



Награды: 12 (Подробнее)

Top Releaser 3 (Количество: 1) Mega Releaser 2 (Количество: 1) Mega Releaser 3 (Количество: 1)
Торрент-статистика

Создавать темы 14-Окт-2016 10:37

[Цитировать]

Информация о фильме
Название: Черный плавник
Оригинальное название: Blackfish
Страна: США
Студия: Manny O Productions
Жанр: Документальный
Год выпуска: 2013
Продолжительность: 01:23:15
Перевод: Любительский одноголосый закадровый - В. Рутилов
Cубтитры: Rus, Eng
Оригинальная аудиодорожка: английский
Режиссер: Габриэла Каупертвэйте / Gabriela Cowperthwaite
В ролях: Тиликум, Джон Харгров, Саманта Берг, Марк Симмонс, Ким Эндаун, Дин Гомерсэлл, Джеймс Эрл Джонс, Shamu, Кэрол Рэй, Джон Джетт
Описание: Фильм начинается с рассказа о несчастном случае, случившимся в 2010 году в водном парке развлечений Орландо, когда касатка Тиликум утащила под воду и утопила дрессировщицу. Как выяснилось, это была не единственная жертва кита-убийцы – за десять лет до этого случая, в 2001 году, Тиликум утопила дрессировщика в канадском парке Виктория. Используя шокирующие кадры нападения касаток и интервью свидетелей, Габриэла Каупертвэйте пытается выяснить истинные причины трагедии.

Тип релиза: BDRip 720p
Контейнер: MKV
Видео: MPEG-4 AVC, 7836 Кбит/с, 1280x720, 23,976 fps
Аудио: Rus, AC3, 640 kb/s (6 ch), 48 kHz
Аудио 2: Eng, AC3, 640 kb/s (6 ch), 48 kHz
Формат субтитров: softsub (SRT)

MediaInfo

x264 [info]: frame I:796 Avg QP:15.90 size:102243
x264 [info]: frame P:26851 Avg QP:17.00 size: 57688
x264 [info]: frame B:92116 Avg QP:18.13 size: 34068
Format : Matroska
Format version : Version 4 / Version 2
File size : 5.41 GiB
Duration : 1h 23mn
Overall bit rate : 9 301 Kbps
Movie name : Чёрный Плавник. (Tonik)
Encoded date : UTC 2016-10-13 02:56:22
Writing application : mkvmerge v7.1.0 ('Good Love') 64bit built on Jul 27 2014 13:06:55
Writing library : libebml v1.3.0 + libmatroska v1.4.1
_STATISTICS_WRITING_APP : mkvmerge v7.1.0 ('Good Love') 64bit built on Jul 27 2014 13:06:55
_STATISTICS_WRITING_DATE_UTC : 2016-10-13 02:56:22
_STATISTICS_TAGS : BPS DURATION NUMBER_OF_FRAMES NUMBER_OF_BYTES
DURATION : 01:23:15.360000000
NUMBER_OF_FRAMES : 156105
NUMBER_OF_BYTES : 399628800
Video
ID : 1
Format : AVC
Format/Info : Advanced Video Codec
Format profile : High@L4.1
Format settings, CABAC : Yes
Format settings, ReFrames : 9 frames
Codec ID : V_MPEG4/ISO/AVC
Duration : 1h 23mn
Bit rate : 7 836 Kbps
Width : 1 280 pixels
Height : 720 pixels
Display aspect ratio : 16:9
Frame rate mode : Constant
Frame rate : 23.976 fps
Color space : YUV
Chroma subsampling : 4:2:0
Bit depth : 8 bits
Scan type : Progressive
Bits/(Pixel*Frame) : 0.355
Stream size : 4.56 GiB (84%)
Writing library : x264 core 138 r2358 9e941d1
Encoding settings : cabac=1 / ref=9 / deblock=1:-3:-3 / analyse=0x3:0x133 / me=umh / subme=10 / psy=1 / psy_rd=1.05:0.00 / mixed_ref=1 / me_range=48 / chroma_me=1 / trellis=2 / 8x8dct=1 / cqm=0 / deadzone=21,11 / fast_pskip=0 / chroma_qp_offset=-2 / threads=18 / lookahead_threads=3 / sliced_threads=0 / nr=0 / decimate=1 / interlaced=0 / bluray_compat=0 / constrained_intra=0 / bframes=9 / b_pyramid=2 / b_adapt=2 / b_bias=0 / direct=3 / weightb=1 / open_gop=0 / weightp=2 / keyint=240 / keyint_min=23 / scenecut=40 / intra_refresh=0 / rc_lookahead=150 / rc=crf / mbtree=0 / crf=16.4 / qcomp=0.80 / qpmin=0 / qpmax=69 / qpstep=4 / vbv_maxrate=50000 / vbv_bufsize=62500 / crf_max=0.0 / nal_hrd=none / ip_ratio=1.30 / pb_ratio=1.20 / aq=1:0.70
Language : English
Default : Yes
Forced : No
_STATISTICS_WRITING_APP : mkvmerge v7.1.0 ('Good Love') 64bit built on Jul 27 2014 13:06:55
_STATISTICS_WRITING_DATE_UTC : 2016-10-13 02:56:22
_STATISTICS_TAGS : BPS DURATION NUMBER_OF_FRAMES NUMBER_OF_BYTES
DURATION : 01:23:15.115000000
NUMBER_OF_FRAMES : 119763
NUMBER_OF_BYTES : 5006977268
Audio #1
ID : 2
Format : AC-3
Format/Info : Audio Coding 3
Mode extension : CM (complete main)
Format settings, Endianness : Big
Codec ID : A_AC3
Duration : 1h 23mn
Bit rate mode : Constant
Bit rate : 640 Kbps
Channel(s) : 6 channels
Channel positions : Front: L C R, Side: L R, LFE
Sampling rate : 48.0 KHz
Bit depth : 16 bits
Compression mode : Lossy
Stream size : 381 MiB (7%)
Title : В. Рутилов
Language : Russian
Default : Yes
Forced : No
Audio #2
ID : 3
Format : AC-3
Format/Info : Audio Coding 3
Mode extension : CM (complete main)
Format settings, Endianness : Big
Codec ID : A_AC3
Duration : 1h 23mn
Bit rate mode : Constant
Bit rate : 640 Kbps
Channel(s) : 6 channels
Channel positions : Front: L C R, Side: L R, LFE
Sampling rate : 48.0 KHz
Bit depth : 16 bits
Compression mode : Lossy
Stream size : 381 MiB (7%)
Language : English
Default : No
Forced : No
Text #1
ID : 4
Format : UTF-8
Codec ID : S_TEXT/UTF8
Codec ID/Info : UTF-8 Plain Text
Language : Russian
Default : No
Forced : No
Text #2
ID : 5
Format : UTF-8
Codec ID : S_TEXT/UTF8
Codec ID/Info : UTF-8 Plain Text
Title : Forced
Language : English
Default : No
Forced : No
Text #3
ID : 6
Format : UTF-8
Codec ID : S_TEXT/UTF8
Codec ID/Info : UTF-8 Plain Text
Language : English
Default : No
Forced : No
Text #4
ID : 7
Format : UTF-8
Codec ID : S_TEXT/UTF8
Codec ID/Info : UTF-8 Plain Text
Title : SDH
Language : English
Default : No
Forced : No
Menu
00:00:00.000 : en:00:00:00.000
00:06:37.439 : en:00:06:37.439
00:10:08.358 : en:00:10:08.358
00:15:01.359 : en:00:15:01.359
00:18:15.094 : en:00:18:15.094
00:24:46.985 : en:00:24:46.985
00:32:37.080 : en:00:32:37.080
00:36:26.726 : en:00:36:26.726
00:40:08.781 : en:00:40:08.781
00:44:47.560 : en:00:44:47.560
00:50:45.417 : en:00:50:45.417
00:54:54.917 : en:00:54:54.917
00:59:18.638 : en:00:59:18.638
01:06:09.007 : en:01:06:09.007
01:11:44.175 : en:01:11:44.175
01:16:03.601 : en:01:16:03.601

Скриншоты

[Профиль] [ЛС]
Показать сообщения:    

Текущее время: Сегодня 16:53

Часовой пояс: GMT



Вы не можете начинать темы
Вы не можете отвечать на сообщения
Вы не можете редактировать свои сообщения
Вы не можете удалять свои сообщения
Вы не можете голосовать в опросах
Вы не можете прикреплять файлы к сообщениям
Вы не можете скачивать файлы