Черный плавник / Blackfish (Габриэла Каупертвэйте / Gabriela Cowperthwaite) [2013, документальный, DVDRip] Original Eng + Sub Rus

 
Автор Сообщение

reversefile ®

Пол:

Стаж: 4 года 5 месяцев

Сообщений: 842

Откуда: ReverseFile.org



Награды: Нет

Торрент-статистика

Создавать темы 24-Июл-2014 17:59

[Цитировать]

Черный плавник / Blackfish- -Год выпуска: 2013
Страна: США
Жанр: документальный
Продолжительность: 01:19:51
Перевод: субтитры
Русские субтитры: есть
Оригинальная дорожка: английский-Режиссер: Габриэла Каупертвэйте / Gabriela Cowperthwaite-В ролях:
Тиликум, Джон Харгров, Саманта Берг, Марк Симмонс, Ким Эндаун,
Дин Гомерсэлл, Джеймс Эрл Джонс, Shamu, Кэрол Рэй, Джон Джетт-Описание:
Фильм начинается с рассказа о несчастном случае, случившимся в 2010 году в водном парке развлечений Орландо, когда касатка Тиликум утащила под воду и утопила дрессировщицу. Как выяснилось, это была не единственная жертва кита-убийцы — за десять лет до этого случая, в 2001 году, Тиликум утопила дрессировщика в канадском парке Виктория. Используя шокирующие кадры нападения касаток и интервью свидетелей, Габриэла Каупертвэйте пытается выяснить истинные причины трагедии.-Возраст: 16+-Качество: DVDRip
Формат: AVI
Видео кодек: XviD
Аудио кодек: AC3-Релиз оформлен группой: -Видео: 720x400 (1.80:1), 25 fps, XviD build 50 ~2057 kbps avg, 0.28 bit/pixel
Аудио: 48 kHz, AC3 Dolby Digital, 3/2 (L,C,R,l,r) + LFE ch, ~384 kbps
Субтитры: Russian
-

MediaInfo

General
Complete name : F:\Черный плавник Blackfish DVDRip\Черный плавник Blackfish DVDRip.avi
Format : AVI
Format/Info : Audio Video Interleave
File size : 1.37 GiB
Duration : 1h 19mn
Overall bit rate : 2 452 Kbps
Writing application : VirtualDubMod 1.5.10.2 (build 2540/release)
Writing library : VirtualDubMod build 2540/release
Video
ID : 0
Format : MPEG-4 Visual
Format profile : Advanced Simple@L5
Format settings, BVOP : Yes
Format settings, QPel : No
Format settings, GMC : No warppoints
Format settings, Matrix : Custom
Codec ID : XVID
Codec ID/Hint : XviD
Duration : 1h 19mn
Bit rate : 2 058 Kbps
Width : 720 pixels
Height : 400 pixels
Display aspect ratio : 16:9
Frame rate : 25.000 fps
Color space : YUV
Chroma subsampling : 4:2:0
Bit depth : 8 bits
Scan type : Progressive
Bits/(Pixel*Frame) : 0.286
Stream size : 1.15 GiB (84%)
Writing library : XviD 1.2.1 (UTC 2008-12-04)
Audio
ID : 1
Format : AC-3
Format/Info : Audio Coding 3
Mode extension : CM (complete main)
Codec ID : 2000
Duration : 1h 19mn
Bit rate mode : Constant
Bit rate : 384 Kbps
Channel(s) : 6 channels
Channel positions : Front: L C R, Side: L R, LFE
Sampling rate : 48.0 KHz
Bit depth : 16 bits
Stream size : 219 MiB (16%)
Alignment : Split accross interleaves
Interleave, duration : 40 ms (1.00 video frame)
Interleave, preload duration : 500 ms

Скриншоты фильма


Ковры

-Раздаю до первых 5-ти скачавших, на раздачи не возвращаюсь...-
[Профиль] [ЛС]
Показать сообщения:    

Текущее время: Сегодня 16:26

Часовой пояс: GMT



Вы не можете начинать темы
Вы не можете отвечать на сообщения
Вы не можете редактировать свои сообщения
Вы не можете удалять свои сообщения
Вы не можете голосовать в опросах
Вы не можете прикреплять файлы к сообщениям
Вы не можете скачивать файлы