Черный нарцисс / Black Narcissus (1947) BDRemux 1080р

 
Автор Сообщение

sergej644 ®

Пол:

Стаж: 4 года 11 месяцев

Сообщений: 6043

Откуда: Soviet Union



Награды: Нет

Торрент-статистика

Создавать темы 18-Ноя-2014 13:28

[Цитировать]

Информация о фильме
Название: Черный нарцисс
Оригинальное название: Black Narcissus
Год выхода: 1947
Жанр: Драма
Режиссер: Майкл Пауэлл
В ролях: Дебора Керр, Флора Робсон, Джин Симмонс, Дэвид Фаррар, Сабу, Эзмонд Найт, Кэтлин Байрон, Дженни Лэйрд, Джудит Ферс, Шон Ноубл, Эдди Уэли
О фильме:
Уставшие от неопределенностей и мирских страстей пять католических монахинь-миссионеров во главе с сестрой Клодаг приезжают в далекое Гималайское селение, чтобы основать там школу.
Однако крах в отношениях с местным белым поселенцем мистером Дином, суровый климат, растущая тяга к дому и, наконец, слабеющая вера вскоре приводят женщин к пониманию того, что им остается либо покинуть это место, либо умереть.

Страна: Великобритания,Independent Producers, The Archers
Продолжительность: 01:41:08
Перевод: Профессиональный многоголосый
Файл
Формат: MKV
Качество: BDRemux
Видео: MPEG-4 AVC, 37 Мбит/с, 1920x1080, 23.976 кадр/с
Звук: Русский (AC3, 1 ch, 128 Кбит/с), английский (LPCM, 1 ch, 1152 Кбит/с)
Субтитры: Английские

Media Info

Общее
Уникальный идентификатор : 202845017303925524082560452063447141803 (0x989A877F84E69D00B23C64A38DEECDAB)
Полное имя : D:торрентBlack.Narcissus.1947.BD.Remux.1080p.h264.MVO.mkv
Формат : Matroska
Версия формата : Version 2
Размер файла : 25,7 Гбайт
Продолжительность : 1 ч. 41 м.
Режим общего битрейта : Переменный
Общий поток : 36,4 Мбит/сек
Дата кодирования : UTC 2010-07-29 17:46:45
Программа кодирования : mkvmerge v4.1.1 ('Bouncin' Back') сборка от Jul 3 2010 22:54:08
Библиотека кодирования : libebml v1.0.0 + libmatroska v1.0.0
Видео
Идентификатор : 1
Формат : AVC
Формат/Информация : Advanced Video Codec
Профиль формата : High@L4.1
Параметр CABAC формата : Да
Параметр ReFrames формата : 4 кадра
Режим смешивания : Container profile=Unknown@0.0
Идентификатор кодека : V_MPEG4/ISO/AVC
Продолжительность : 1 ч. 41 м.
Вид битрейта : Переменный
Максимальный битрейт : 37,0 Мбит/сек
Ширина : 1920 пикселей
Высота : 1080 пикселей
Соотношение сторон : 16:9
Режим частоты кадров : Постоянный
Частота кадров : 23,976 кадра/сек
Цветовое пространство : YUV
Субдискретизация насыщенности : 4:2:0
Битовая глубина : 8 бит
Тип развёртки : Прогрессивная
Заголовок : Black Narcissus
Язык : English
Default : Да
Forced : Нет
Основные цвета : BT.709
Характеристики трансфера : BT.709
Коэффициенты матрицы : BT.709
Аудио #1
Идентификатор : 2
Формат : AC-3
Формат/Информация : Audio Coding 3
Расширение режима : CM (complete main)
Параметр Endianness формата : Big
Идентификатор кодека : A_AC3
Продолжительность : 1 ч. 41 м.
Вид битрейта : Постоянный
Битрейт : 128 Кбит/сек
Каналы : 1 канал
Расположение каналов : Front: C
Частота : 48,0 КГц
Битовая глубина : 16 бит
Метод сжатия : С потерями
Размер потока : 92,6 Мбайт (0%)
Заголовок : MVO AC3 1.0 128kbps
Язык : Russian
Default : Да
Forced : Нет
Аудио #2
Идентификатор : 3
Формат : PCM
Идентификатор кодека : A_PCM/INT/LIT
Продолжительность : 1 ч. 41 м.
Вид битрейта : Постоянный
Частота : 48,0 КГц
Битовая глубина : 24 бит
Заголовок : LPCM 1.0 / 48 kHz / 1152 kbps / 24-bit
Язык : English
Default : Нет
Forced : Нет
Аудио #3
Идентификатор : 4
Формат : AC-3
Формат/Информация : Audio Coding 3
Расширение режима : CM (complete main)
Параметр Endianness формата : Big
Идентификатор кодека : A_AC3
Продолжительность : 1 ч. 41 м.
Вид битрейта : Постоянный
Битрейт : 192 Кбит/сек
Каналы : 1 канал
Расположение каналов : Front: C
Частота : 48,0 КГц
Битовая глубина : 16 бит
Метод сжатия : С потерями
Размер потока : 139 Мбайт (1%)
Заголовок : Commentary featuring Powell and director Martin Scorsese
Язык : English
Default : Нет
Forced : Нет
Текст
Идентификатор : 5
Формат : VobSub
Режим смешивания : zlib
Идентификатор кодека : S_VOBSUB
Идентификатор кодека/Информация : The same subtitle format used on DVDs
Язык : English
Default : Нет
Forced : Нет
Меню
00:00:00.000 : :Credits
00:02:44.414 : :The Palace of Mopu
00:08:06.027 : :The General's announcement
00:11:35.403 : :A new home
00:19:11.776 : :"You must be Mr.Dean"
00:21:57.942 : :Drums in the night
00:24:51.865 : :A proper convent
00:30:19.651 : :Kanchi arrives
00:35:05.020 : :The sisters remember
00:41:03.544 : :The Young General
00:47:38.689 : :The scent of black narcissus
00:51:54.570 : :Christmas at St. Faith
01:00:34.464 : :Flowers, not vegetables
01:07:28.836 : :A sick child
01:13:01.210 : :Sister Clodagh's confession
01:19:50.953 : :A sister escapes
01:25:42.929 : :Breakdown
01:30:05.817 : :Struggle at the bell tower
01:35:41.611 : :Farewells

Скриншоты

--
[Профиль] [ЛС]
Показать сообщения:    

Текущее время: Сегодня 16:42

Часовой пояс: GMT



Вы не можете начинать темы
Вы не можете отвечать на сообщения
Вы не можете редактировать свои сообщения
Вы не можете удалять свои сообщения
Вы не можете голосовать в опросах
Вы не можете прикреплять файлы к сообщениям
Вы не можете скачивать файлы