Черный динамит / Black Dynamite (Скотт Сандерс / Scott Sanders) [2009, США, blaxploitation, боевик, комедия, BDRip] VO (Наумов)

 
Автор Сообщение

TorrentFilm ®

Пол:

Стаж: 2 года

Сообщений: 7741



Награды: Нет

Торрент-статистика

Создавать темы 29-Мар-2016 00:08

[Цитировать]

Черный динамитBlack Dynamite- Год выпуска: 2009
Страна: США
Жанр: [url=viewtopic.php?t=4792453]blaxploitation[/url], боевик, комедия-Продолжительность: 01:24:14
Перевод: Одноголосый закадровый К. Наумов
Режиссёр: Скотт Сандерс / Scott Sanders
В ролях: Майкл Джей Уайт, Салли Ричардсон, Арсенио Холл, Кевин Чепман, Томми Дейвидсон, Обба Бабатандей, Ричард Эдсон, Бадди Льюис, Брайан МакНайт, Николь Ари Паркер, Байрон Миннс, Джеймс МакМанус, Фил Моррис, Мигель Нуньес-мл., Такер Смолвуд, Джон Солли, Крис Спенсер, Майк Старр, Николь Салливан, Ким Уитли, Майкелти Уильямсон, Букем Вудбайн, Седрик Ярбро, Рон Юань, Джон Керри, Филлис Эпплгейт, Уильям Бассетт, Бейрон Вон, Шерил Картер, Пит Антико, Стейси Адамс, Джастин Джоли, Шарлотта Стоукли, Шармейн Стар, Джон Кент Этридж, Нил Льюис и др.-Описание: В районах черного гетто свирепствует итальянская мафия: сиротский приют садится на героин, на улицах распространяется контрабандная бражка под видом крутого ликера. Секретный агент ЦРУ по прозвищу Черный Динамит берет дело в свои руки, поводом для чего становится убийство его брата.- -Sample-Качество: BDRip (источник: Black.Dynamite.2009.1080p.BluRay.AVC.DTS-HD.MA.5.1-FGT)
Формат: AVI
Видео: XviD, 720x384 (1.85:1), 23.976 fps, ~2019 kbps
Аудио: Russian 48.0 KHz, AС3 , 6 channels, 448 Kbps |К. Наумов|
Субтитры: отсутствуют-

MediaInfo

General
Complete name : F:\Black.Dynamite.2009.BDRip.XviD.AC3.-whip93.avi
Format : AVI
Format/Info : Audio Video Interleave
File size : 1.46 GiB
Duration : 1h 24mn
Overall bit rate : 2 476 Kbps
Writing application : VirtualDubMod 1.5.10.3 | www.virtualdub-fr.org || (build 2550/release)
Writing library : VirtualDubMod build 2550/release
Copyright : whip93
Video
ID : 0
Format : MPEG-4 Visual
Format profile : Advanced Simple@L5
Format settings, BVOP : 1
Format settings, QPel : No
Format settings, GMC : No warppoints
Format settings, Matrix : Custom
Codec ID : XVID
Codec ID/Hint : XviD
Duration : 1h 24mn
Bit rate : 2 019 Kbps
Width : 720 pixels
Height : 384 pixels
Display aspect ratio : 1.85:1
Frame rate : 23.976 fps
Color space : YUV
Chroma subsampling : 4:2:0
Bit depth : 8 bits
Scan type : Progressive
Compression mode : Lossy
Bits/(Pixel*Frame) : 0.305
Stream size : 1.19 GiB (82%)
Writing library : XviD 73
Audio
ID : 1
Format : AC-3
Format/Info : Audio Coding 3
Mode extension : CM (complete main)
Format settings, Endianness : Big
Codec ID : 2000
Duration : 1h 24mn
Bit rate mode : Constant
Bit rate : 448 Kbps
Channel(s) : 6 channels
Channel positions : Front: L C R, Side: L R, LFE
Sampling rate : 48.0 KHz
Bit depth : 16 bits
Compression mode : Lossy
Stream size : 270 MiB (18%)
Alignment : Split accross interleaves
Interleave, duration : 42 ms (1.00 video frame)
Interleave, preload duration : 500 ms

Скриншоты

-
[Профиль] [ЛС]

Создавать темы 12-Июн-2016 07:56 (спустя 2 месяца 14 дней)

Топик был перенесен из форума Фильмы 2011 года в форум Фильмы 2009 года
Russian Mafia
 
Показать сообщения:    

Текущее время: Сегодня 15:41

Часовой пояс: GMT



Вы не можете начинать темы
Вы не можете отвечать на сообщения
Вы не можете редактировать свои сообщения
Вы не можете удалять свои сообщения
Вы не можете голосовать в опросах
Вы не можете прикреплять файлы к сообщениям
Вы не можете скачивать файлы