Черный ангел / Kuro no tenshi Vol. 1 (1998) BDRemux 1080p | L1

 
Автор Сообщение

Russian Mafia ®

Пол:

Стаж: 1 год 8 месяцев

Сообщений: 4246



Награды: 10 (Подробнее)

Mega Seeder 1 (Количество: 1) Top Releaser 4 (Количество: 1) Mega Seeder 4 (Количество: 1)
Торрент-статистика

Создавать темы 05-Окт-2016 04:37

[Цитировать]

Чёрный ангел / Kuro no tenshi Vol. 1
Страна: Япония
Производство: Zunac-Project
Год выпуска: 1998
Жанр: боевик, триллер, драма, криминал
Продолжительность: 01:46:31
Режиссер: Такаси Исии
Автор сценария: Такаси Исии
В ролях: Риона Хазуки, Рэйко Такасима, Джинпачи Незу, Киппэй Сина, Миюки Оно, Йошиюки Ямагути, Хидео Мурота, Синго Цуруми, Рен Осуги
Описание: На глазах шестилетней Икко, дочери босса якудзы, были зверски убиты её отец и мать. Она тоже должна была разделить судьбу родителей, но благодаря таинственной женщине-киллеру по прозвищу «Чёрный ангел» Икко удаётся ускользнуть от убийц. Девочку переправляют в США, где она воспитывается под надзором американской якудзы. А когда ей исполняется 20 лет, она возвращается в Японию, чтобы отомстить убийцам своих родителей. Теперь уже её зовут «Чёрным ангелом»…

Перевод: Любительский (одноголосый, закадровый)
Субтитры: английские-Качество: BDRemux 1080p
Формат: МКV
Видео кодек: AVC
Аудио кодек: АС3
Видео: 1920x1080 (16:9), 23.976 fps, MPEG-4 AVC ~25.4 Мbps avg
Аудио №1: 48.0 kHz, AC3 Dolby Digital, 2/0 (L,R) ch, ~192 kbps | RUS
Аудио №2: 48.0 kHz, Digital Theater Systems Master Audio, 2/0 (L,R) ch, ~1715 kbps / 16-bit | JAP
Формат субтитров: UTF-8 Plain Text
Дата премьеры (мир): 30 мая 1998
Релиз от:
Дополнительная информация: благодарность за русскую аудиодорожку - dooctoor, ncledi

BDRemux Info

Уникальный идентификатор : 249625959200991134792464680451570500758 (0xBBCC36024574F112824CC7C0460D8496)
Полное имя : Black.Angel.1997.BDRemux.1080p_by_vedigo.mkv
Формат : Matroska
Версия формата : Version 4 / Version 2
Размер файла : 20,3 Гбайт
Продолжительность : 1 ч. 46 м.
Режим общего битрейта : Переменный
Общий поток : 27,3 Мбит/сек
Название фильма : Black.Angel.1997.BDRemux.1080p_by_vedigo
Дата кодирования : UTC 2016-10-05 00:54:39
Программа кодирования : mkvmerge v9.4.2 ('So High') 64bit
Библиотека кодирования : libebml v1.3.4 + libmatroska v1.4.5
Видео
Идентификатор : 1
Формат : AVC
Формат/Информация : Advanced Video Codec
Профиль формата : High@L4.1
Параметр CABAC формата : Да
Параметр ReFrames формата : 2 кадра
Идентификатор кодека : V_MPEG4/ISO/AVC
Продолжительность : 1 ч. 46 м.
Вид битрейта : Переменный
Битрейт : 25,4 Мбит/сек
Ширина : 1920 пикселей
Высота : 1080 пикселей
Соотношение сторон : 16:9
Режим частоты кадров : Постоянный
Частота кадров : 23,976 (24000/1001) кадра/сек
Цветовое пространство : YUV
Субдискретизация насыщенности : 4:2:0
Битовая глубина : 8 бит
Тип развёртки : Прогрессивная
Бит/(Пиксели*Кадры) : 0.511
Размер потока : 18,9 Гбайт (93%)
Заголовок : Black.Angel.1997.BDRemux.1080p_by_vedigo
Default : Да
Forced : Нет
Аудио #1
Идентификатор : 2
Формат : AC-3
Формат/Информация : Audio Coding 3
Расширение режима : CM (complete main)
Параметр Endianness формата : Big
Идентификатор кодека : A_AC3
Продолжительность : 1 ч. 46 м.
Вид битрейта : Постоянный
Битрейт : 192 Кбит/сек
Каналы : 2 канала
Расположение каналов : Front: L R
Частота : 48,0 КГц
Частота кадров : 31,250 кадров/сек (1536 spf)
Метод сжатия : С потерями
Размер потока : 146 Мбайт (1%)
Заголовок : VO
Язык : Russian
Default : Да
Forced : Нет
Аудио #2
Идентификатор : 3
Формат : DTS
Формат/Информация : Digital Theater Systems
Профиль формата : MA / Core
Режим : 16
Параметр Endianness формата : Big
Идентификатор кодека : A_DTS
Продолжительность : 1 ч. 46 м.
Вид битрейта : Переменный / Постоянный
Битрейт : 1715 Кбит/сек / 1509 Кбит/сек
Каналы : 2 канала
Расположение каналов : Front: L R
Частота : 48,0 КГц
Частота кадров : 93,750 кадра/сек (512 spf)
Битовая глубина : 16 бит
Метод сжатия : Без потерь / Lossy
Размер потока : 1,28 Гбайт (6%)
Заголовок : Original
Язык : Japanese
Default : Нет
Forced : Нет
Текст
Идентификатор : 4
Формат : UTF-8
Идентификатор кодека : S_TEXT/UTF8
Идентификатор кодека/Информация : UTF-8 Plain Text
Продолжительность : 1 ч. 45 м.
Битрейт : 20 бит/сек
Count of elements : 598
Размер потока : 15,5 Кбайт (0%)
Заголовок : Subtitle eng
Язык : English
Default : Нет
Forced : Нет
Меню
00:00:00.000 : en:00:00:00.000
00:01:54.698 : en:00:01:54.698
00:11:47.665 : en:00:11:47.665
00:17:31.050 : en:00:17:31.050
00:23:40.044 : en:00:23:40.044
00:33:08.945 : en:00:33:08.945
00:36:34.818 : en:00:36:34.818
00:42:12.947 : en:00:42:12.947
00:49:06.944 : en:00:49:06.944
00:53:53.897 : en:00:53:53.897
00:56:47.404 : en:00:56:47.404
00:59:28.190 : en:00:59:28.190
01:11:06.929 : en:01:11:06.929
01:22:10.259 : en:01:22:10.259
01:25:43.847 : en:01:25:43.847
01:33:37.987 : en:01:33:37.987
01:37:55.411 : en:01:37:55.411
01:43:21.695 : en:01:43:21.695

Скриншоты

[Профиль] [ЛС]
Показать сообщения:    

Текущее время: Сегодня 11:48

Часовой пояс: GMT



Вы не можете начинать темы
Вы не можете отвечать на сообщения
Вы не можете редактировать свои сообщения
Вы не можете удалять свои сообщения
Вы не можете голосовать в опросах
Вы не можете прикреплять файлы к сообщениям
Вы не можете скачивать файлы